Сегодня идет свободное скачивание без начисления Download

Куриный городок / Chicken town (Нико Меулеманс) [2011.,Комедия, семейный]SATRip (1 сезон, 39 серий из 39)

Ответить на тему
 
Автор
Сообщение

sashau ®

Пол:

Стаж: 5 лет 9 месяцев

Сообщений: 3575

Торрент-статистика

Пост 17-Июл-2013 14:46

[Цитировать]

Куриный городок / Chicken town - Год выпуска: 2011
Жанр: Комедия, семейный
Страна: Франция
Описание:
Комедийный мультсериал о злоключениях кур и их хозяев. "Куриный городок" расположился в центре города, на парковке автомобилей.
В какие только переделки, не попадают действующие персонажи...
Режиссер: Нико Меулеманс

Продолжительность: 39 х ~00:08:00
Качество видео: SATRip
Перевод: Дублированный (СТС)
Видео: XviD, ~ 1682 Кбит/с, 25 fps, 704x400
Аудио: MP3, 2 ch, 48,0 КГц, 128 Кбит/с

Список серий

01. Stuffed Eggs
02. Zwit Zwit
03. Polly Tales
04. Diamonds Are the Hen's Best Friends
05. Sgt. Zino
06. The Kidnapper
07. Batteries Not Included
08. Chickenstein
09. Fleas in the Coop
10. Poultry League
11. Balalaika Balad
12. Roosterman
13. Polly Wanna Turkey
14. Zino's Ride of Terror
15. Happy Birthday Lazy Lou
16. Slooshie Please!
17. The Exchange
18. Mr. Music
19. Crocodiles Rock!
20. King Kong
21. The Machine
22. Be My Valentine
23. Shark Attack!
24. Santa's Pause
25. Poultrygeist
26. Guess Who's Coming
27. Street Screams
28. Space Invaders
29. Junior
30. Early to Rise
31. Black Tide
32. The Great Race
33. Flying Chickens
34. The Treasure
35. Rare Bird
36. Father's Day
37. When Karpi Meets Jenny
38. Think Pink
39. Polly's Pet

MI

Общее
Полное имя : E:\Закачки\1\Kuriniy.gorodok.(1.sezon.1-39.serii.iz.39).2011.XviD.SATRip\Kuriniy.gorodok.(01.seriya.iz.39).2011.XviD.SATRip.avi
Формат : AVI
Формат/Информация : Audio Video Interleave
Размер файла : 106 Мбайт
Продолжительность : 8 м. 48 с.
Общий поток : 1682 Кбит/сек
Программа кодирования : Lavf53.24.0
Библиотека кодирования : VirtualDub build 32842/release
Видео
Идентификатор : 0
Формат : MPEG-4 Visual
Профиль формата : Advanced Simple@L5
Параметр BVOP формата : Нет
Параметр QPel формата : Нет
Параметр GMC формата : Без точки перехода
Параметр матрицы формата : Выборочная
Идентификатор кодека : XVID
Идентификатор кодека/Подсказка : XviD
Продолжительность : 8 м. 48 с.
Битрейт : 1541 Кбит/сек
Ширина : 704 пикселя
Высота : 400 пикселей
Соотношение сторон : 16:9
Частота кадров : 25,000 кадров/сек
Цветовое пространство : YUV
Субдискретизация насыщенности : 4:2:0
Битовая глубина : 8 бит
Тип развёртки : Прогрессивная
Метод сжатия : С потерями
Бит/(Пиксели*Кадры) : 0.219
Размер потока : 97,1 Мбайт (92%)
Библиотека кодирования : XviD 1.1.2 (UTC 2006-11-01)
Аудио
Идентификатор : 1
Формат : MPEG Audio
Версия формата : Version 1
Профиль формата : Layer 3
Режим : Joint stereo
Расширение режима : MS Stereo
Идентификатор кодека : 55
Идентификатор кодека/Подсказка : MP3
Продолжительность : 8 м. 47 с.
Вид битрейта : Постоянный
Битрейт : 128 Кбит/сек
Каналы : 2 канала
Частота : 48,0 КГц
Метод сжатия : С потерями
Размер потока : 8,05 Мбайт (8%)
Выравнивание : Соединение по промежуткам
Продолжительность промежутка : 24 мс. (0,60 видеокадр)
Время предзагрузки промежутка : 504 мс.
Скриншоты:
       
       
Вне форума [Профиль] [ЛС]
Показать сообщения:    
Ответить на тему

Текущее время: Сегодня 14:47

Часовой пояс: GMT + 3



Вы не можете начинать темы
Вы не можете отвечать на сообщения
Вы не можете редактировать свои сообщения
Вы не можете удалять свои сообщения
Вы не можете голосовать в опросах
Вы не можете прикреплять файлы к сообщениям
Вы не можете скачивать файлы