Сегодня идет свободное скачивание без начисления Download

Мост / The Bridge (Сезон 1, полный, 13 серий) [Fox] (Гвинет Хердер-Пэйтон / Gwyneth Horder-Payton ...) [2013 г.] (Триллер, драма, криминал, детектив) [WEB-DL 720p] (MVO)

Ответить на тему
 
Автор
Сообщение

Omen ®

Стаж: 5 лет 10 месяцев

Сообщений: 184329

Торрент-статистика

Пост 14-Июл-2013 16:17

[Цитировать]

Мост / The Bridge
«Every body is connected»
- Русское название: Мост
Оригинальное название: The Bridge
Страна: США
Год выпуска: 2013
Жанр: Триллер, драма, криминал, детектив ...-Озвучка: Студия Fox
Перевод: Многоголосый закадровый, профессиональный-Режиссер: Гвинет Хердер-Пэйтон / Gwyneth Horder-Payton, Билл Джонсон / Bill Johnson, Серджо Мимика-Геззан / Sergio Mimica-Gezzan ...
В главных ролях: Демиан Бишир (Demián Bichir), Аннабет Гиш (Annabeth Gish), Аннабет Гиш (Annabeth Gish), Тед Левайн (Ted Levine), Эмили Риос (Emily Rios), Эрик Ланж (Eric Lange), Джейк Олстон (Jake Alston), Карлос Праттс (Carlos Pratts), Томас М. Райт (Thomas M. Wright), Альма Мартинез (Alma Martinez) ...-Описание фильма:
Драма о двух детективах, вынужденных работать вместе, чтобы схватить серийного убийцу, действующего по обе стороны американско-мексиканской границы.-Сезон: 1
Серии: 13 из 13 серий
Продолжительность: ~ 01:04:00 мин серия-Качество видео: WEB-DL 720p
Контейнер: MKV
Видео кодек: AVC
Аудио кодек: AC-3
Видео: AVC at 4394 Кбит/сек, 1280 x 718 (1.783) at 23.962 fps
Аудио #1: Rus AC-3 at 192 Кбит/сек, 2 канала, 48,0 КГц — многоголосый
Аудио #2: Eng AC-3 at 384 Кбит/сек, 6 каналов, 48,0 КГц — оригинал
Cубтитры: отсутствуют
- -

Список серий:

  • Пилот (Pilot)
  • Смерть (Calaca)
  • Рио (Rio)
  • Мария из пустыни (Maria of the Desert)
  • Зверь (The Beast)
  • Опознание (ID)
  • Предназначение (Destino)
  • Вендетта (Vendetta)
  • Жук (The Beetle)
  • Старые друзья (Old Friends)
  • Плата за проезд (Take the Ride, Pay the Toll)
  • Всё о Еве (All About Eva)
  • Это безумное место (The Crazy Place)
-

MediaInfo:

Код:
Общее
Уникальный идентификатор                 : 184390059864127187766717315643470203178 (0x8AB83BD89C5A2B8B97CF590A13F7492A)
Полное имя                               : C:\Users\Администратор\Desktop\Сэмпл.mkv
Формат                                   : Matroska
Версия формата                           : Version 4 / Version 2
Размер файла                             : 37,5 Мбайт
Продолжительность                        : 1 м. 2 с.
Общий поток                              : 5071 Кбит/сек
Дата кодирования                         : UTC 2013-07-12 22:31:09
Программа кодирования                    : mkvmerge v6.2.0 ('Promised Land') built on Apr 28 2013 12:22:01
Библиотека кодирования                   : libebml v1.3.0 + libmatroska v1.4.0
Видео
Идентификатор                            : 1
Формат                                   : AVC
Формат/Информация                        : Advanced Video Codec
Профиль формата                          : High@L3.1
Параметр CABAC формата                   : Нет
Параметр ReFrames формата                : 2 кадра
Идентификатор кодека                     : V_MPEG4/ISO/AVC
Продолжительность                        : 1 м. 2 с.
Битрейт                                  : 4394 Кбит/сек
Ширина                                   : 1280 пикселей
Высота                                   : 718 пикселей
Соотношение сторон                       : 16:9
Режим частоты кадров                     : Постоянный
Частота кадров                           : 23,962 кадра/сек
Цветовое пространство                    : YUV
Субдискретизация насыщенности            : 4:2:0
Битовая глубина                          : 8 бит
Тип развёртки                            : Прогрессивная
Бит/(Пиксели*Кадры)                      : 0.200
Размер потока                            : 32,5 Мбайт (87%)
Язык                                     : English
Default                                  : Нет
Forced                                   : Нет
Основные цвета                           : BT.709
Характеристики трансфера                 : BT.709
Коэффициенты матрицы                     : BT.709
Аудио #1
Идентификатор                            : 2
Формат                                   : AC-3
Формат/Информация                        : Audio Coding 3
Расширение режима                        : CM (complete main)
Параметр Endianness формата              : Big
Идентификатор кодека                     : A_AC3
Продолжительность                        : 1 м. 2 с.
Вид битрейта                             : Постоянный
Битрейт                                  : 192 Кбит/сек
Каналы                                   : 2 канала
Расположение каналов                     : Front: L R
Частота                                  : 48,0 КГц
Битовая глубина                          : 16 бит
Метод сжатия                             : С потерями
Задержка видео                           : 11 мс.
Размер потока                            : 1,42 Мбайт (4%)
Язык                                     : Russian
Default                                  : Да
Forced                                   : Да
Аудио #2
Идентификатор                            : 3
Формат                                   : AC-3
Формат/Информация                        : Audio Coding 3
Расширение режима                        : CM (complete main)
Параметр Endianness формата              : Big
Идентификатор кодека                     : A_AC3
Продолжительность                        : 1 м. 2 с.
Вид битрейта                             : Постоянный
Битрейт                                  : 384 Кбит/сек
Каналы                                   : 6 каналов
Расположение каналов                     : Front: L C R, Side: L R, LFE
Частота                                  : 48,0 КГц
Битовая глубина                          : 16 бит
Метод сжатия                             : С потерями
Задержка видео                           : 11 мс.
Размер потока                            : 2,84 Мбайт (8%)
Язык                                     : English
Default                                  : Нет
Forced                                   : Нет
678993 & RT
-Скриншоты:
       
-

Внимание! Раздача ведётся путём добавления новых серий!

Внимание! Раздача ведётся путём добавления новых серий; при каждом добавлении создётся новый торрент. Чтобы начать докачку новой серии, пользователям необходимо сделать следующее:
(1) остановить скачивание,
(2) удалить старый торрент у себя из клиента (старые серии удалять не надо),
(3) скачать новый торрент и запустить его у себя в клиенте вместо старого, при этом указать клиенту путь в старую папку куда и должно происходить скачивание новых серий.
Ваш клиент при этом должен произвести хеширование (проверку) старой папки (если не производит сам - помогите ему сделать это), и будет докачивать только те серии которых у вас ещё нет. Старые серии при этом не удаляются, а продолжают раздаваться!
Eсли вы уже удалили старые серии, то предотвратить повторную закачку старых серий можно, отжав галочку в соответствующих местах при запуске нового торрента.
-Добавлена тринадцатая, заключительная, серия первого сезона
Вне форума [Профиль] [ЛС]
Показать сообщения:    
Ответить на тему

Текущее время: Сегодня 09:59

Часовой пояс: GMT + 3



Вы не можете начинать темы
Вы не можете отвечать на сообщения
Вы не можете редактировать свои сообщения
Вы не можете удалять свои сообщения
Вы не можете голосовать в опросах
Вы не можете прикреплять файлы к сообщениям
Вы не можете скачивать файлы