Сегодня идет свободное скачивание без начисления Download

Тот, кто убивает / Den som draeber / Those Who Kill (Сезон 1 полный (10 серий) + Тень прошлого / Fortidens skygge) (2011) BDRip (BaibaKo)

Ответить на тему
 
Автор
Сообщение

Omen ®

Стаж: 5 лет 11 месяцев

Сообщений: 184329

Торрент-статистика

Пост 13-Июл-2013 22:23

[Цитировать]

Тот, кто убивает
Den som draeber / Those Who Kill
- Русское название: Тот, кто убивает
Оригинальное название: Den som dræber
Год выпуска: 2011
Страна: Дания
Жанр: Боевик, триллер, криминал
Перевод: Профессиональный многоголосый закадровый - BaibaKo
Режиссер: Каспер Барфоэд, Ниельс Нёрлёв Хансен, Биргер Ларсен
Актеры: Лаура Бах, Якоб Седергрен, Ларс Миккельсен, Лерке Винтер Андерсен, Фредерик Мельдаль Нёргор, Ибен Дорнер Эстергорд, Бенжамин Брюэль, Карстен Бьорнлунн, Давид Денсик, Ульрих Томсен и др.
Описание:
В центре сериала опытный следователь Катрин Рис Йенсен, которая вот уже много лет руководит расследованиями уголовных преступлений в столице Дании. В детстве пережив насилие со стороны отчима, она ищет насильников, маньяков и убийц, жертвуя собой и своей личной жизнью. В её расследованиях ей помогает Стиг Мёльбек, метящий на место Катрин Рис, а также психолог Томас Шэффер, имеющий в своём прошлом тёмные страницы. Не раз он примет рискованное решение, которое может привести к тяжёлым последствиям.
СЭМПЛ
Продолжительность: ~ 00:45:00 серия
Качество видео: BDRip
Формат: AVI
Видео: 720x400 (16:9), 25 fps, XviD ~1500 kbps, ~ 0.208 bit/pixel
Аудио Rus: 48 kHz, MPEG Layer 3, 2 ch, 192 kbps CBR
Аудио Eng: 48 kHz, MPEG Layer 3, 2 ch, 192 kbps CBR
Релиз:
Озвучка: Татьяна Оболевич, Артемий Мирон, Акмал Гурезов
Автор перевода: Янина Галицкая
           

Тех. данные (MI)

Общее
Den.som.draeber.s01e01-02.BDRip.XviD.Rus.Eng.BaibaKo.tv.avi
Формат : AVI
Формат/Информация : Audio Video Interleave
Размер файла : 1,15 Гбайт
Продолжительность : 1 ч. 26 м.
Общий поток : 1898 Кбит/сек
Программа кодирования : VirtualDubModRus 1.5.10.2 (build 2542/release)
Библиотека кодирования : VirtualDubMod build 2542/release
Видео
Идентификатор : 0
Формат : MPEG-4 Visual
Профиль формата : Advanced Simple@L5
Параметр BVOP формата : 2
Параметр QPel формата : Нет
Параметр GMC формата : Без точки перехода
Параметр матрицы формата : Default (MPEG)
Идентификатор кодека : XVID
Идентификатор кодека/Подсказка : XviD
Продолжительность : 1 ч. 26 м.
Битрейт : 1500 Кбит/сек
Ширина : 720 пикселей
Высота : 400 пикселей
Соотношение сторон : 16:9
Частота кадров : 25,000 кадров/сек
Цветовое пространство : YUV
Субдискретизация насыщенности : 4:2:0
Битовая глубина : 8 бит
Тип развёртки : Прогрессивная
Метод сжатия : С потерями
Бит/(Пиксели*Кадры) : 0.208
Размер потока : 933 Мбайт (79%)
Библиотека кодирования : XviD 65
Аудио #1
Идентификатор : 1
Формат : MPEG Audio
Версия формата : Version 1
Профиль формата : Layer 3
Режим : Joint stereo
Идентификатор кодека : 55
Идентификатор кодека/Подсказка : MP3
Продолжительность : 1 ч. 26 м.
Вид битрейта : Постоянный
Битрейт : 192 Кбит/сек
Каналы : 2 канала
Частота : 48,0 КГц
Метод сжатия : С потерями
Размер потока : 119 Мбайт (10%)
Выравнивание : Разделение по промежуткам
Продолжительность промежутка : 40 мс. (1,00 видеокадр)
Время предзагрузки промежутка : 500 мс.
Аудио #2
Идентификатор : 2
Формат : MPEG Audio
Версия формата : Version 1
Профиль формата : Layer 3
Режим : Joint stereo
Идентификатор кодека : 55
Идентификатор кодека/Подсказка : MP3
Продолжительность : 1 ч. 26 м.
Вид битрейта : Постоянный
Битрейт : 192 Кбит/сек
Каналы : 2 канала
Частота : 48,0 КГц
Метод сжатия : С потерями
Размер потока : 119 Мбайт (10%)
Выравнивание : Разделение по промежуткам
Продолжительность промежутка : 40 мс. (1,00 видеокадр)
Время предзагрузки промежутка : 500 мс.

Список серий

01-02. Liget i skoven / Труп в лесу
03-04. Utopia / Утопия
05-06. Ondt blod / Дурная кровь
07-08. Øje for øje / Око за око
09-10. Dødens kabale / Смертельная игра
+ Den som dræber - Fortidens skygge / Тот, кто убивает – Тень прошлого (финал сериала)

Внимание! Раздача ведётся путём добавления новых серий

Внимание! Раздача ведётся путём добавления новых серий; при каждом добавлении создаётся новый торрент.
Чтобы начать докачку новой серии, пользователям необходимо сделать следующее:
1. Остановить скачивание;
2. Удалить старый торрент у себя из клиента (старые серии удалять не надо);
3. Скачать новый торрент и запустить его у себя в клиенте вместо старого, при этом указать клиенту путь в старую папку куда и должно происходить скачивание новых серий. Ваш клиент при этом должен произвести хеширование (проверку) старой папки и будет докачивать только те серии, которых у вас ещё нет. Старые серии при этом не удаляются, а продолжают раздаваться! Eсли вы уже удалили старые серии, то предотвратить повторную закачку старых серий можно, отжав галочку в соответствующих местах при запуске нового торрента.
Вне форума [Профиль] [ЛС]

outventure2000

Стаж: 5 лет 6 месяцев

Сообщений: 12

Торрент-статистика

Пост 06-Сен-2013 09:43 (спустя 1 месяц 23 дня)

[Цитировать]

kogesan,
Не скачивается! Прошу проверить раздачу.
Вне форума [Профиль] [ЛС]
Показать сообщения:    
Ответить на тему

Текущее время: Сегодня 19:54

Часовой пояс: GMT + 3



Вы не можете начинать темы
Вы не можете отвечать на сообщения
Вы не можете редактировать свои сообщения
Вы не можете удалять свои сообщения
Вы не можете голосовать в опросах
Вы не можете прикреплять файлы к сообщениям
Вы не можете скачивать файлы