Today is a free download without charge Download

(Orchestral, Instrumental, Vocal) Самое лучшее из Моцарта / The Very Best Of Mozart - 2005, FLAC (image + .cue), lossless

Reply to topic
 
Author
Message

Зуи ®

Gender:

Longevity: 9 years 1 month

Posts: 10

Торрент-статистика

Post 10-Jan-2012 18:16

[Quote]

Самое лучшее из Моцарта / The Very Best Of Mozart
Страна: Germany (Naxos)
Жанр: Orchestral, Instrumental, Vocal
Год выпуска: 2005
Формат: FLAC (image + .cue)
Битрейт аудио: lossless
Продолжительность: 02:18:25
Дополнительная информация о диске:
Каталог - 8.552111-12
ISBN - 1-84379-212-5
Barcode - 7 30099 21112 3

Трэклист

CD 1
1. Serenade No.13 "Eine kleine Nachtmusik": Allegro 6:07
- Swedish Chamber Orchestra / Sundkvist Petter, Conductor
2. Horn Concerto No.4: Rondo: Allegro vivace 3:35
- Stevove Milos, horn / Capella Istropolitana / Kopelman Jozef, Conductor
3. Cosi fan tutte: Soave sia il vento 3:15
- Borowska Joanna, soprano / Yachmi Rohangiz, mezzo-soprano / Mikulas Peter, bass / Capella Istropolitana / Wildner Johannes, Conductor
4. Violin Sonata K.378: Andantino 6:42
- Nishizaki Takako, violin / Jando Jeno, piano
5. Requiem: Confutatis and Lacrymosa 4:33
- Gewandhaus Chamber Choir / Leipzig Chamber Orchestra / Schuldt-Jensen Morten, Conductor
6. Symphony No.40: Molto allegro 7:30
- Capella Istropolitana / Wordsworth Barry, Conductor
7. String Quartet "Hunt": Minuetto 4:18
- Eder Quartet
8. Don Giovanni: La ci darem la mano 3:11
- Robin Donna, soprano / Martin Andrea, baritone / Capella Istropolitana / Wildner Johannes, Conductor
9. German Dance No.3: "Sleigh Ride" 3:24
- Capella Istropolitana / Wildner Johannes, Conductor
10. Piano Concerto No.20: Allegro assai 7:41
- Jando Jeno, piano / Concentus Hungaricus / Ligeti Andras, Conductor
11. Marriage of Figaro: Voi che sapete 2:52
- Breedt Michelle, soprano / Nicolaus Esterhazy Sinfonia / Halasz Michael, Conductor
12. Symphony No.25: Allegro con brio 7:42
- Capella Istropolitana / Wordsworth Barry, Conductor
13. Ave verum corpus 2:55
- Kosice Teachers' Choir / Camerata Cassovia / Wildner Johannes, Conductor
CD 2
1. Marriage of Figaro: Overture 4:08
- Nicolaus Esterhazy Sinfonia / Halasz Michael, Conductor /
2. Clarinet Concerto: Adagio 7:24
- Ottensamer Ernst, clarinet / Vienna Mozart Academy / Wildner Johannes, Conductor
3. Mass in C Minor: Kyrie 6:53
- Strausz Kalman, choirmaster / Loukianetz Viktoria, soprano / Hungarian Radio Chorus / Nicolaus Esterhazy Sinfonia / Halasz Michael, Conductor
4. Piano Concerto No.21: Andante 6:49
- Jando Jeno, piano / Concentus Hungaricus / Ligeti Andras, Conductor
5. Symphony No.41 "Jupiter": Molto allegro 9:31
- Capella Istropolitana / Wordsworth Barry, Conductor
6. Die Zauberflote: Der Holle Rache 2:57
- Robin Donna, soprano / Capella Istropolitana / Wildner Johannes, Conductor
7. Piano Sonata No.11: Rondo alla turca 3:46
- Jando Jeno, piano
8. Flute and Harp Concerto: Andantino 8:59
- Gallois Patrick, flute / Pierre Fabrice, harp / Shaw Roderick, harpsichord / Swedish Chamber Orchestra / Andreasson Katarina, Conductor
9. Serenade for winds K.361: Menuetto 8:52
- German Wind Soloists
10. Clarinet Quintet: Larghetto 6:04
- Balogh Jozsef, clarinet / Danubius Quartet
11. Violin Concerto No.5: Tempo di minuetto 9:21
- Nishizaki Takako, violin / Capella Istropolitana / Gunzenhauser Stephen, Conductor

Отчеты EAC и CUE

Отчет EAC CD1

Exact Audio Copy V0.99 prebeta 4 from 23. January 2008
Отчёт EAC об извлечении, выполненном 28. ноября 2009, 21:22
Mozart / The Very Best Of Mozart - CD1
Дисковод: HL-DT-STDVD-RW GWA-4040N Adapter: 1 ID: 0
Режим чтения : Достоверность
Использование точного потока : Да
Отключение кэша аудио : Да
Использование указателей C2 : Нет
Коррекция смещения при чтении : 48
Способность читать области Lead-in и Lead-out : Нет
Заполнение пропущенных сэмплов тишиной : Да
Удаление блоков с тишиной в начале и конце : Нет
При вычислениях CRC использовались нулевые сэмплы : Да
Интерфейс : Установленный внешний ASPI-интерфейс
Выходной формат : Пользовательский кодировщик
Выбранный битрейт : 768 kBit/s
Качество : Высокий
Добавление ID3-тэга : Да
Утилита сжатия : C:\Program Files\Exact Audio Copy\FLAC\FLAC.EXE
Дополнительные параметры : -6 -V -T "ARTIST=%a" -T "TITLE=%t" -T "ALBUM=%g" -T "DATE=%y" -T "TRACKNUMBER=%n" -T "GENRE=%m" -T "COMMENT=%e" %s -o %d
TOC извлечённого CD
Трек | Старт | Длительность | Начальный сектор | Конечный сектор
---------------------------------------------------------------------
1 | 0:00.00 | 6:06.21 | 0 | 27470
2 | 6:06.21 | 3:38.03 | 27471 | 43823
3 | 9:44.24 | 3:14.33 | 43824 | 58406
4 | 12:58.57 | 6:39.32 | 58407 | 88363
5 | 19:38.14 | 4:34.38 | 88364 | 108951
6 | 24:12.52 | 7:32.25 | 108952 | 142876
7 | 31:45.02 | 4:17.69 | 142877 | 162220
8 | 36:02.71 | 3:09.71 | 162221 | 176466
9 | 39:12.67 | 3:24.04 | 176467 | 191770
10 | 42:36.71 | 7:39.32 | 191771 | 226227
11 | 50:16.28 | 2:52.12 | 226228 | 239139
12 | 53:08.40 | 7:42.06 | 239140 | 273795
13 | 60:50.46 | 2:51.29 | 273796 | 286649
Характеристики диапазона извлечения и сообщения об ошибках
Выбранный диапазон
Имя файла d:\Мои документы\Моя музыка\The Very Best Of Mozart ( 2CD )\The Very Best Of Mozart - CD1\Mozart - The Very Best Of Mozart - CD1.wav
Пиковый уровень 100.0 %
Качество диапазона 100.0 %
CRC теста F81CF372
CRC копии F81CF372
Копирование... OK
Ошибок не произошло
AccurateRip: сводка
Трек 1 точное извлечение (доверие 4) [13E56C74]
Трек 2 точное извлечение (доверие 4) [558D58E7]
Трек 3 точное извлечение (доверие 4) [B75FB68A]
Трек 4 точное извлечение (доверие 4) [8DE8B105]
Трек 5 точное извлечение (доверие 4) [CF3D4B27]
Трек 6 точное извлечение (доверие 4) [19048EFC]
Трек 7 точное извлечение (доверие 4) [46C4F464]
Трек 8 точное извлечение (доверие 4) [A9261DCD]
Трек 9 точное извлечение (доверие 4) [B1DDC460]
Трек 10 точное извлечение (доверие 4) [DFD41219]
Трек 11 точное извлечение (доверие 4) [84933C7D]
Трек 12 точное извлечение (доверие 4) [6D2E91DA]
Трек 13 точное извлечение (доверие 4) [7A92354E]
Все треки извлечены точно
Конец отчёта

Отчет EAC CD2

Exact Audio Copy V0.99 prebeta 4 from 23. January 2008
Отчёт EAC об извлечении, выполненном 28. ноября 2009, 22:59
Mozart / The Very Best Of Mozart - CD2
Дисковод: HL-DT-STDVD-RW GWA-4040N Adapter: 1 ID: 0
Режим чтения : Достоверность
Использование точного потока : Да
Отключение кэша аудио : Да
Использование указателей C2 : Нет
Коррекция смещения при чтении : 48
Способность читать области Lead-in и Lead-out : Нет
Заполнение пропущенных сэмплов тишиной : Да
Удаление блоков с тишиной в начале и конце : Нет
При вычислениях CRC использовались нулевые сэмплы : Да
Интерфейс : Установленный внешний ASPI-интерфейс
Выходной формат : Пользовательский кодировщик
Выбранный битрейт : 768 kBit/s
Качество : Высокий
Добавление ID3-тэга : Да
Утилита сжатия : C:\Program Files\Exact Audio Copy\FLAC\FLAC.EXE
Дополнительные параметры : -6 -V -T "ARTIST=%a" -T "TITLE=%t" -T "ALBUM=%g" -T "DATE=%y" -T "TRACKNUMBER=%n" -T "GENRE=%m" -T "COMMENT=%e" %s -o %d
TOC извлечённого CD
Трек | Старт | Длительность | Начальный сектор | Конечный сектор
---------------------------------------------------------------------
1 | 0:00.00 | 4:12.00 | 0 | 18899
2 | 4:12.00 | 7:22.36 | 18900 | 52085
3 | 11:34.36 | 6:52.67 | 52086 | 83052
4 | 18:27.28 | 6:47.59 | 83053 | 113636
5 | 25:15.12 | 9:30.38 | 113637 | 156424
6 | 34:45.50 | 2:58.49 | 156425 | 169823
7 | 37:44.24 | 3:44.71 | 169824 | 186694
8 | 41:29.20 | 8:57.37 | 186695 | 227006
9 | 50:26.57 | 8:52.68 | 227007 | 266974
10 | 59:19.50 | 6:03.47 | 266975 | 294246
11 | 65:23.22 | 9:15.53 | 294247 | 335924
Характеристики диапазона извлечения и сообщения об ошибках
Выбранный диапазон
Имя файла d:\Мои документы\Моя музыка\The Very Best Of Mozart ( 2CD )\The Very Best Of Mozart - CD2\Mozart - The Very Best Of Mozart - CD2.wav
Пиковый уровень 97.5 %
Качество диапазона 100.0 %
CRC теста 89C7B2EB
CRC копии 89C7B2EB
Копирование... OK
Ошибок не произошло
AccurateRip: сводка
Трек 1 точное извлечение (доверие 4) [41E095A3]
Трек 2 точное извлечение (доверие 4) [44649733]
Трек 3 точное извлечение (доверие 4) [E868858F]
Трек 4 точное извлечение (доверие 4) [63D1180D]
Трек 5 точное извлечение (доверие 4) [5730A341]
Трек 6 точное извлечение (доверие 4) [7225C15A]
Трек 7 точное извлечение (доверие 4) [BC24E1A3]
Трек 8 точное извлечение (доверие 4) [8B1035C0]
Трек 9 точное извлечение (доверие 4) [CB1F2585]
Трек 10 точное извлечение (доверие 4) [45ACE568]
Трек 11 точное извлечение (доверие 4) [53DDE2F6]
Все треки извлечены точно
Конец отчёта

CUE CD1

REM GENRE Classical
REM DATE 2005
REM DISCID B60EEE0D
REM COMMENT "ExactAudioCopy v0.99pb4"
PERFORMER "Mozart"
TITLE "The Very Best Of Mozart - CD1"
FILE "Mozart - The Very Best Of Mozart - CD1.flac" WAVE
TRACK 01 AUDIO
TITLE "Serenade No.13 'Eine kleine Nachtmusik': Allegro"
PERFORMER "Mozart"
INDEX 01 00:00:00
TRACK 02 AUDIO
TITLE "Horn Concerto No.4: Rondo: Allegro vivace"
PERFORMER "Mozart"
INDEX 00 06:04:55
INDEX 01 06:06:21
TRACK 03 AUDIO
TITLE "Cosi fan tutte: Soave sia il vento"
PERFORMER "Mozart"
INDEX 00 09:40:18
INDEX 01 09:44:24
TRACK 04 AUDIO
TITLE "Violin Sonata K.378: Andantino"
PERFORMER "Mozart"
INDEX 00 12:54:68
INDEX 01 12:58:57
TRACK 05 AUDIO
TITLE "Requiem: Confutatis and Lacrymosa"
PERFORMER "Mozart"
INDEX 00 19:37:12
INDEX 01 19:38:14
TRACK 06 AUDIO
TITLE "Symphony No.40: Molto allegro"
PERFORMER "Mozart"
INDEX 00 24:10:31
INDEX 01 24:12:52
TRACK 07 AUDIO
TITLE "String Quartet 'Hunt': Minuetto"
PERFORMER "Mozart"
INDEX 00 31:40:18
INDEX 01 31:45:02
TRACK 08 AUDIO
TITLE "Don Giovanni: La ci darem la mano"
PERFORMER "Mozart"
INDEX 00 35:57:63
INDEX 01 36:02:71
TRACK 09 AUDIO
TITLE "German Dance No.3: 'Sleigh Ride'"
PERFORMER "Mozart"
INDEX 00 39:08:33
INDEX 01 39:12:67
TRACK 10 AUDIO
TITLE "Piano Concerto No.20: Allegro assai"
PERFORMER "Mozart"
INDEX 00 42:32:08
INDEX 01 42:36:71
TRACK 11 AUDIO
TITLE "Marriage of Figaro: Voi che sapete "
PERFORMER "Mozart"
INDEX 00 50:13:08
INDEX 01 50:16:28
TRACK 12 AUDIO
TITLE "Symphony No.25: Allegro con brio"
PERFORMER "Mozart"
INDEX 00 53:04:61
INDEX 01 53:08:40
TRACK 13 AUDIO
TITLE "Ave verum corpus"
PERFORMER "Mozart"
INDEX 00 60:46:45
INDEX 01 60:50:46

CUE CD2

REM GENRE Classical
REM DATE 2005
REM DISCID 9B117F0B
REM COMMENT "ExactAudioCopy v0.99pb4"
PERFORMER "Mozart"
TITLE "The Very Best Of Mozart - CD2"
FILE "Mozart - The Very Best Of Mozart - CD2.flac" WAVE
TRACK 01 AUDIO
TITLE "Marriage of Figaro: Overture"
PERFORMER "Mozart"
INDEX 01 00:00:00
TRACK 02 AUDIO
TITLE "Clarinet Concerto: Adagio"
PERFORMER "Mozart"
INDEX 00 04:05:54
INDEX 01 04:12:00
TRACK 03 AUDIO
TITLE "Mass in C Minor: Kyrie"
PERFORMER "Mozart"
INDEX 00 11:29:18
INDEX 01 11:34:36
TRACK 04 AUDIO
TITLE "Piano Concerto No.21: Andante"
PERFORMER "Mozart"
INDEX 00 18:22:10
INDEX 01 18:27:28
TRACK 05 AUDIO
TITLE "Symphony No.41 'Jupiter': Molto allegro"
PERFORMER "Mozart"
INDEX 00 25:10:73
INDEX 01 25:15:12
TRACK 06 AUDIO
TITLE "Die Zauberflote: Der Holle Rache"
PERFORMER "Mozart"
INDEX 00 34:41:59
INDEX 01 34:45:50
TRACK 07 AUDIO
TITLE "Piano Sonata No.11: Rondo alla turca"
PERFORMER "Mozart"
INDEX 00 37:38:58
INDEX 01 37:44:24
TRACK 08 AUDIO
TITLE "Flute and Harp Concerto: Andantino"
PERFORMER "Mozart"
INDEX 00 41:24:25
INDEX 01 41:29:20
TRACK 09 AUDIO
TITLE "Serenade for winds K.361: Menuetto"
PERFORMER "Mozart"
INDEX 00 50:22:65
INDEX 01 50:26:57
TRACK 10 AUDIO
TITLE "Clarinet Quintet: Larghetto"
PERFORMER "Mozart"
INDEX 00 59:14:65
INDEX 01 59:19:50
TRACK 11 AUDIO
TITLE "Violin Concerto No.5: Tempo di minuetto"
PERFORMER "Mozart"
INDEX 00 65:18:32
INDEX 01 65:23:22
Other forum [Profile] [PM]
Display posts from previous:    
Reply to topic

The time now is: Today 10:31

All times are GMT + 3 Hours



You cannot post new topics in this forum
You cannot reply to topics in this forum
You cannot edit your posts in this forum
You cannot delete your posts in this forum
You cannot vote in polls in this forum
You cannot attach files in this forum
You cannot download files in this forum