Today is a free download without charge Download

(Power Metall) Эпидемия - Эльфийская Рукопись. Сказание На Все Времена - 2007, ALAC (tracks), lossless

Reply to topic
 
Author
Message

Nugeiro ®

Gender:

Longevity: 8 years 8 months

Posts: 1981

Location: Украина, Шостка

Торрент-статистика

Post 08-Jan-2012 13:39

[Quote]

Эпидемия - Эльфийская Рукопись. Сказание На Все Времена
Страна: Россия
Жанр: Power Metall
Год выпуска: 2007
Формат: ALAC (tracks)
Битрейт аудио: lossless
Продолжительность: 01:04:13
Трэклист:
01 Пролог
02 Звёздный Портал
03 Владыки Гор
04 Исповедь Первого Бога
05 Сказание Снегов
06 Нити Судьбы
07 Без Сердца И Души
08 Океан Пустоты
09 Сказание Огня
10 Остров Драконов
11 Сказание На Все Времена
12 Солнца Свет
13 В Небеса

Отчёт EAC

Код:
Exact Audio Copy V0.99 prebeta 5 from 4. May 2009
Отчёт EAC об извлечении, выполненном 11. июня 2010, 19:06
Эпидемия / Эльфийская Рукопись. Сказание На Все Времена
Дисковод: Optiarc DVD RW AD-7173A Adapter: 0 ID: 1
Режим чтения : Достоверность
Использование точного потока : Да
Отключение кэша аудио : Да
Использование указателей C2 : Нет
Коррекция смещения при чтении : 48
Способность читать области Lead-in и Lead-out : Нет
Заполнение пропущенных сэмплов тишиной : Да
Удаление блоков с тишиной в начале и конце : Нет
При вычислениях CRC использовались нулевые сэмплы : Да
Интерфейс : Установленный внешний ASPI-интерфейс
Выходной формат : Внутренние WAV-операции
Формат сэмплов : 44.100 Гц; 16 бит; стерео
TOC извлечённого CD
Трек | Старт | Длительность | Начальный сектор | Конечный сектор
---------------------------------------------------------------------
1 | 0:00.00 | 2:09.40 | 0 | 9714
2 | 2:09.40 | 5:21.10 | 9715 | 33799
3 | 7:30.50 | 5:24.03 | 33800 | 58102
4 | 12:54.53 | 4:46.06 | 58103 | 79558
5 | 17:40.59 | 1:43.18 | 79559 | 87301
6 | 19:24.02 | 5:39.24 | 87302 | 112750
7 | 25:03.26 | 8:31.29 | 112751 | 151104
8 | 33:34.55 | 5:06.69 | 151105 | 174123
9 | 38:41.49 | 0:46.04 | 174124 | 177577
10 | 39:27.53 | 4:31.03 | 177578 | 197905
11 | 43:58.56 | 12:43.17 | 197906 | 255147
12 | 56:41.73 | 5:03.41 | 255148 | 277913
13 | 61:45.39 | 2:31.31 | 277914 | 289269
Характеристики диапазона извлечения и сообщения об ошибках
Выбранный диапазон
Имя файла D:\RIP\Эпидемия - Эльфийская Рукопись. Сказание На Все Времена\Эпидемия - Эльфийская Рукопись. Сказание На Все Времена.wav
Пиковый уровень 97.7 %
Качество диапазона 99.9 %
CRC теста F9A93C93
CRC копии F9A93C93
Копирование... OK
Ошибок не произошло
AccurateRip: сводка
Трек 1 точное извлечение (доверие 6) [4484D338]
Трек 2 точное извлечение (доверие 6) [54896393]
Трек 3 точное извлечение (доверие 6) [C565C38E]
Трек 4 точное извлечение (доверие 6) [1FB5C85A]
Трек 5 точное извлечение (доверие 6) [02320B0C]
Трек 6 точное извлечение (доверие 5) [5D4D03C8]
Трек 7 точное извлечение (доверие 5) [7E449B07]
Трек 8 точное извлечение (доверие 5) [A57FB326]
Трек 9 точное извлечение (доверие 6) [13FB7B56]
Трек 10 точное извлечение (доверие 6) [E5D34E07]
Трек 11 точное извлечение (доверие 6) [DF7BAE82]
Трек 12 точное извлечение (доверие 6) [967BCCFB]
Трек 13 точное извлечение (доверие 6) [A62EDBA6]
Все треки извлечены точно
Конец отчёта
--

_________________


Last edited by Nugeiro on 2012-01-08 19:04; edited 1 time in total
Other forum [Profile] [PM]
Display posts from previous:    
Reply to topic

The time now is: Today 13:43

All times are GMT + 3 Hours



You cannot post new topics in this forum
You cannot reply to topics in this forum
You cannot edit your posts in this forum
You cannot delete your posts in this forum
You cannot vote in polls in this forum
You cannot attach files in this forum
You cannot download files in this forum