Today is a free download without charge Download

(Lounge) VA - Relax Cafe 4CD - 2011, APE (tracks+.cue), lossless

Reply to topic
 
Author
Message

BiteFly ®

Gender:

Longevity: 9 years 3 months

Posts: 2138

Location: Germany-Russia

Торрент-статистика

Post 06-Jan-2012 14:28

[Quote]

Various Artists - Relax Cafe- -Жанр: Lounge
Страна-производитель диска: Russia
Год издания диска: 2011
Издатель (лейбл): ООО "САПФИР"
Аудиокодек: APE (*.ape)
Тип рипа: tracks+.cue
Битрейт аудио: lossless
Наличие сканов в содержимом раздачи: да

СD1 Relax Cafe

Треклист

1. Track01 - Track01 (5:49)
2. Track02 - Track02 (6:20)
3. Track03 - Track03 (3:07)
4. Track04 - Track04 (7:41)
5. Track05 - Track05 (2:55)
6. Track06 - Track06 (4:09)
7. Track07 - Track07 (5:12)
8. Track08 - Track08 (6:04)
9. Track09 - Track09 (5:46)
10. Track10 - Track10 (6:36)
11. Track11 - Track11 (7:32)
12. Track12 - Track12 (5:43)
13. Track13 - Track13 (4:37)
14. Track14 - Track14 (6:00)

Лог создания рипа

Код:
Exact Audio Copy V1.0 beta 1 from 15. November 2010
EAC extraction logfile from 23. December 2011, 21:39
Various / Relax Cafe CD1
Used drive  : ASUS    DRW-24B3ST   Adapter: 3  ID: 0
Read mode               : Secure
Utilize accurate stream : Yes
Defeat audio cache      : Yes
Make use of C2 pointers : No
Read offset correction                      : 6
Overread into Lead-In and Lead-Out          : No
Fill up missing offset samples with silence : Yes
Delete leading and trailing silent blocks   : No
Null samples used in CRC calculations       : Yes
Used interface                              : Native Win32 interface for Win NT & 2000
Gap handling                                : Appended to previous track
Used output format              : Monkey's Audio Lossless Encoder
Selected bitrate                : Fast Lossless Compression
Quality                         : High
Add ID3 tag                     : Yes
Command line compressor         : C:\Program Files\Exact Audio Copy\Mac\MAC.exe
Additional command line options : %dest% -t "Genre=%genre%" -t "Artist=%artist%" -t "Title=%title%" -t "Album=%albumtitle%" -t "Year=%year%" -t "Track=%tracknr%" -t "Comment=%comment%" mac.exe %source% %dest% -c3000
TOC of the extracted CD
     Track |   Start  |  Length  | Start sector | End sector
    ---------------------------------------------------------
        1  |  0:00.00 |  5:48.60 |         0    |    26159
        2  |  5:48.60 |  6:20.37 |     26160    |    54696
        3  | 12:09.22 |  3:06.50 |     54697    |    68696
        4  | 15:15.72 |  7:40.56 |     68697    |   103252
        5  | 22:56.53 |  2:55.15 |    103253    |   116392
        6  | 25:51.68 |  4:09.15 |    116393    |   135082
        7  | 30:01.08 |  5:12.01 |    135083    |   158483
        8  | 35:13.09 |  6:03.44 |    158484    |   185752
        9  | 41:16.53 |  5:46.35 |    185753    |   211737
       10  | 47:03.13 |  6:35.50 |    211738    |   241412
       11  | 53:38.63 |  7:32.04 |    241413    |   275316
       12  | 61:10.67 |  5:42.72 |    275317    |   301038
       13  | 66:53.64 |  4:36.58 |    301039    |   321796
       14  | 71:30.47 |  5:59.55 |    321797    |   348776
Track  1
     Filename F:\ЗАГРУЗКИ\Relax Cafe 4CD (2011)\CD1 Relax Cafe\01. Track01 - Track01.wav
     Pre-gap length  0:00:02.00
     Peak level 100.0 %
     Extraction speed 4.1 X
     Track quality 100.0 %
     Test CRC 8AD964AC
     Copy CRC 8AD964AC
     Track not present in AccurateRip database
     Copy OK
Track  2
     Filename F:\ЗАГРУЗКИ\Relax Cafe 4CD (2011)\CD1 Relax Cafe\02. Track02 - Track02.wav
     Peak level 100.0 %
     Extraction speed 4.7 X
     Track quality 100.0 %
     Test CRC D9ED21AB
     Copy CRC D9ED21AB
     Track not present in AccurateRip database
     Copy OK
Track  3
     Filename F:\ЗАГРУЗКИ\Relax Cafe 4CD (2011)\CD1 Relax Cafe\03. Track03 - Track03.wav
     Peak level 100.0 %
     Extraction speed 4.7 X
     Track quality 100.0 %
     Test CRC 2DDADDC1
     Copy CRC 2DDADDC1
     Track not present in AccurateRip database
     Copy OK
Track  4
     Filename F:\ЗАГРУЗКИ\Relax Cafe 4CD (2011)\CD1 Relax Cafe\04. Track04 - Track04.wav
     Peak level 100.0 %
     Extraction speed 5.6 X
     Track quality 100.0 %
     Test CRC A7F89829
     Copy CRC A7F89829
     Track not present in AccurateRip database
     Copy OK
Track  5
     Filename F:\ЗАГРУЗКИ\Relax Cafe 4CD (2011)\CD1 Relax Cafe\05. Track05 - Track05.wav
     Peak level 100.0 %
     Extraction speed 5.2 X
     Track quality 100.0 %
     Test CRC A1A8E226
     Copy CRC A1A8E226
     Track not present in AccurateRip database
     Copy OK
Track  6
     Filename F:\ЗАГРУЗКИ\Relax Cafe 4CD (2011)\CD1 Relax Cafe\06. Track06 - Track06.wav
     Peak level 100.0 %
     Extraction speed 5.8 X
     Track quality 100.0 %
     Test CRC D453317F
     Copy CRC D453317F
     Track not present in AccurateRip database
     Copy OK
Track  7
     Filename F:\ЗАГРУЗКИ\Relax Cafe 4CD (2011)\CD1 Relax Cafe\07. Track07 - Track07.wav
     Peak level 95.7 %
     Extraction speed 6.3 X
     Track quality 100.0 %
     Test CRC E2CB40E0
     Copy CRC E2CB40E0
     Track not present in AccurateRip database
     Copy OK
Track  8
     Filename F:\ЗАГРУЗКИ\Relax Cafe 4CD (2011)\CD1 Relax Cafe\08. Track08 - Track08.wav
     Peak level 94.1 %
     Extraction speed 5.7 X
     Track quality 99.9 %
     Test CRC 0D6E5CE5
     Copy CRC 0D6E5CE5
     Track not present in AccurateRip database
     Copy OK
Track  9
     Filename F:\ЗАГРУЗКИ\Relax Cafe 4CD (2011)\CD1 Relax Cafe\09. Track09 - Track09.wav
     Peak level 100.0 %
     Extraction speed 7.0 X
     Track quality 100.0 %
     Test CRC 800F6840
     Copy CRC 800F6840
     Track not present in AccurateRip database
     Copy OK
Track 10
     Filename F:\ЗАГРУЗКИ\Relax Cafe 4CD (2011)\CD1 Relax Cafe\10. Track10 - Track10.wav
     Peak level 86.1 %
     Extraction speed 7.4 X
     Track quality 100.0 %
     Test CRC C59250F0
     Copy CRC C59250F0
     Track not present in AccurateRip database
     Copy OK
Track 11
     Filename F:\ЗАГРУЗКИ\Relax Cafe 4CD (2011)\CD1 Relax Cafe\11. Track11 - Track11.wav
     Peak level 100.0 %
     Extraction speed 7.8 X
     Track quality 100.0 %
     Test CRC B14F76E4
     Copy CRC B14F76E4
     Track not present in AccurateRip database
     Copy OK
Track 12
     Filename F:\ЗАГРУЗКИ\Relax Cafe 4CD (2011)\CD1 Relax Cafe\12. Track12 - Track12.wav
     Peak level 97.8 %
     Extraction speed 7.9 X
     Track quality 100.0 %
     Test CRC C9EC7AFE
     Copy CRC C9EC7AFE
     Track not present in AccurateRip database
     Copy OK
Track 13
     Filename F:\ЗАГРУЗКИ\Relax Cafe 4CD (2011)\CD1 Relax Cafe\13. Track13 - Track13.wav
     Peak level 94.3 %
     Extraction speed 8.0 X
     Track quality 100.0 %
     Test CRC FBD62D43
     Copy CRC FBD62D43
     Track not present in AccurateRip database
     Copy OK
Track 14
     Filename F:\ЗАГРУЗКИ\Relax Cafe 4CD (2011)\CD1 Relax Cafe\14. Track14 - Track14.wav
     Peak level 100.0 %
     Extraction speed 8.5 X
     Track quality 100.0 %
     Test CRC 6219BD56
     Copy CRC 6219BD56
     Track not present in AccurateRip database
     Copy OK
None of the tracks are present in the AccurateRip database
No errors occurred
End of status report
==== Log checksum CD657061BB86441EB8BE1B716F20A53340805E8F6FCF9FD32BDB2E7714544F8F ====

Содержание индексной карты (.CUE)

Код:
REM GENRE Lounge
REM DATE 2011
REM DISCID B6122A0E
REM COMMENT "ExactAudioCopy v1.0b1"
PERFORMER "Various"
TITLE "Relax Cafe CD1"
FILE "01. Track01 - Track01.wav" WAVE
  TRACK 01 AUDIO
    TITLE "Track01"
    PERFORMER "Track01"
    FLAGS DCP
    INDEX 01 00:00:00
FILE "02. Track02 - Track02.wav" WAVE
  TRACK 02 AUDIO
    TITLE "Track02"
    PERFORMER "Track02"
    FLAGS DCP
    INDEX 01 00:00:00
FILE "03. Track03 - Track03.wav" WAVE
  TRACK 03 AUDIO
    TITLE "Track03"
    PERFORMER "Track03"
    FLAGS DCP
    INDEX 01 00:00:00
FILE "04. Track04 - Track04.wav" WAVE
  TRACK 04 AUDIO
    TITLE "Track04"
    PERFORMER "Track04"
    FLAGS DCP
    INDEX 01 00:00:00
FILE "05. Track05 - Track05.wav" WAVE
  TRACK 05 AUDIO
    TITLE "Track05"
    PERFORMER "Track05"
    FLAGS DCP
    INDEX 01 00:00:00
FILE "06. Track06 - Track06.wav" WAVE
  TRACK 06 AUDIO
    TITLE "Track06"
    PERFORMER "Track06"
    FLAGS DCP
    INDEX 01 00:00:00
FILE "07. Track07 - Track07.wav" WAVE
  TRACK 07 AUDIO
    TITLE "Track07"
    PERFORMER "Track07"
    FLAGS DCP
    INDEX 01 00:00:00
FILE "08. Track08 - Track08.wav" WAVE
  TRACK 08 AUDIO
    TITLE "Track08"
    PERFORMER "Track08"
    FLAGS DCP
    INDEX 01 00:00:00
FILE "09. Track09 - Track09.wav" WAVE
  TRACK 09 AUDIO
    TITLE "Track09"
    PERFORMER "Track09"
    FLAGS DCP
    INDEX 01 00:00:00
FILE "10. Track10 - Track10.wav" WAVE
  TRACK 10 AUDIO
    TITLE "Track10"
    PERFORMER "Track10"
    FLAGS DCP
    INDEX 01 00:00:00
FILE "11. Track11 - Track11.wav" WAVE
  TRACK 11 AUDIO
    TITLE "Track11"
    PERFORMER "Track11"
    FLAGS DCP
    INDEX 01 00:00:00
FILE "12. Track12 - Track12.wav" WAVE
  TRACK 12 AUDIO
    TITLE "Track12"
    PERFORMER "Track12"
    FLAGS DCP
    INDEX 01 00:00:00
FILE "13. Track13 - Track13.wav" WAVE
  TRACK 13 AUDIO
    TITLE "Track13"
    PERFORMER "Track13"
    FLAGS DCP
    INDEX 01 00:00:00
FILE "14. Track14 - Track14.wav" WAVE
  TRACK 14 AUDIO
    TITLE "Track14"
    PERFORMER "Track14"
    FLAGS DCP
    INDEX 01 00:00:00
Время звучания: 1:17:30

СD2 Dj Sajem

Треклист

1. Track01 - Track01 (6:12)
2. Track02 - Track02 (6:28)
3. Track03 - Track03 (3:24)
4. Track04 - Track04 (3:49)
5. Track05 - Track05 (4:05)
6. Track06 - Track06 (3:19)
7. Track07 - Track07 (3:17)
8. Track08 - Track08 (5:47)
9. Track09 - Track09 (4:39)
10. Track10 - Track10 (4:16)
11. Track11 - Track11 (3:47)
12. Track12 - Track12 (3:55)
13. Track13 - Track13 (4:02)
14. Track14 - Track14 (3:40)

Лог создания рипа

Код:
Exact Audio Copy V1.0 beta 1 from 15. November 2010
EAC extraction logfile from 23. December 2011, 22:53
Various / Relax Cafe DJ Sajem CD2
Used drive  : PLEXTOR DVDR   PX-L890SA   Adapter: 5  ID: 0
Read mode               : Secure
Utilize accurate stream : Yes
Defeat audio cache      : Yes
Make use of C2 pointers : No
Read offset correction                      : 6
Overread into Lead-In and Lead-Out          : No
Fill up missing offset samples with silence : Yes
Delete leading and trailing silent blocks   : No
Null samples used in CRC calculations       : Yes
Used interface                              : Native Win32 interface for Win NT & 2000
Gap handling                                : Appended to previous track
Used output format              : Monkey's Audio Lossless Encoder
Selected bitrate                : Fast Lossless Compression
Quality                         : High
Add ID3 tag                     : Yes
Command line compressor         : C:\Program Files\Exact Audio Copy\Mac\MAC.exe
Additional command line options : %dest% -t "Genre=%genre%" -t "Artist=%artist%" -t "Title=%title%" -t "Album=%albumtitle%" -t "Year=%year%" -t "Track=%tracknr%" -t "Comment=%comment%" mac.exe %source% %dest% -c3000
TOC of the extracted CD
     Track |   Start  |  Length  | Start sector | End sector
    ---------------------------------------------------------
        1  |  0:00.00 |  6:12.00 |         0    |    27899
        2  |  6:12.00 |  6:28.00 |     27900    |    56999
        3  | 12:40.00 |  3:24.00 |     57000    |    72299
        4  | 16:04.00 |  3:49.00 |     72300    |    89474
        5  | 19:53.00 |  4:05.14 |     89475    |   107863
        6  | 23:58.14 |  3:19.25 |    107864    |   122813
        7  | 27:17.39 |  3:17.30 |    122814    |   137618
        8  | 30:34.69 |  5:47.14 |    137619    |   163657
        9  | 36:22.08 |  4:39.00 |    163658    |   184582
       10  | 41:01.08 |  4:16.17 |    184583    |   203799
       11  | 45:17.25 |  3:47.37 |    203800    |   220861
       12  | 49:04.62 |  3:55.20 |    220862    |   238506
       13  | 53:00.07 |  4:02.00 |    238507    |   256656
       14  | 57:02.07 |  3:40.00 |    256657    |   273156
Track  1
     Filename F:\ЗАГРУЗКИ\Relax Cafe 4CD (2011)\CD2 Relax Cafe Dj Sajem\01. Track01 - Track01.wav
     Pre-gap length  0:00:02.00
     Peak level 99.9 %
     Extraction speed 4.2 X
     Track quality 100.0 %
     Test CRC D82A1B08
     Copy CRC D82A1B08
     Cannot be verified as accurate (confidence 1)  [E99278FC], AccurateRip returned [7B3CA73E]
     Copy OK
Track  2
     Filename F:\ЗАГРУЗКИ\Relax Cafe 4CD (2011)\CD2 Relax Cafe Dj Sajem\02. Track02 - Track02.wav
     Peak level 100.0 %
     Extraction speed 4.8 X
     Track quality 100.0 %
     Test CRC C6C5D787
     Copy CRC C6C5D787
     Cannot be verified as accurate (confidence 1)  [9F62D848], AccurateRip returned [4C69E973]
     Copy OK
Track  3
     Filename F:\ЗАГРУЗКИ\Relax Cafe 4CD (2011)\CD2 Relax Cafe Dj Sajem\03. Track03 - Track03.wav
     Peak level 98.6 %
     Extraction speed 4.8 X
     Track quality 100.0 %
     Test CRC AEAB57B1
     Copy CRC AEAB57B1
     Cannot be verified as accurate (confidence 1)  [583CA3C3], AccurateRip returned [186A22E8]
     Copy OK
Track  4
     Filename F:\ЗАГРУЗКИ\Relax Cafe 4CD (2011)\CD2 Relax Cafe Dj Sajem\04. Track04 - Track04.wav
     Peak level 100.0 %
     Extraction speed 5.1 X
     Track quality 100.0 %
     Test CRC F748D006
     Copy CRC F748D006
     Cannot be verified as accurate (confidence 1)  [1D958A8A], AccurateRip returned [C0C7334E]
     Copy OK
Track  5
     Filename F:\ЗАГРУЗКИ\Relax Cafe 4CD (2011)\CD2 Relax Cafe Dj Sajem\05. Track05 - Track05.wav
     Peak level 71.9 %
     Extraction speed 5.4 X
     Track quality 100.0 %
     Test CRC 597793DC
     Copy CRC 597793DC
     Cannot be verified as accurate (confidence 1)  [BD291E27], AccurateRip returned [0F93B756]
     Copy OK
Track  6
     Filename F:\ЗАГРУЗКИ\Relax Cafe 4CD (2011)\CD2 Relax Cafe Dj Sajem\06. Track06 - Track06.wav
     Peak level 100.0 %
     Extraction speed 5.5 X
     Track quality 100.0 %
     Test CRC 404ACCE4
     Copy CRC 404ACCE4
     Cannot be verified as accurate (confidence 1)  [2B29DD3E], AccurateRip returned [51D424CD]
     Copy OK
Track  7
     Filename F:\ЗАГРУЗКИ\Relax Cafe 4CD (2011)\CD2 Relax Cafe Dj Sajem\07. Track07 - Track07.wav
     Peak level 76.1 %
     Extraction speed 5.6 X
     Track quality 100.0 %
     Test CRC B046548C
     Copy CRC B046548C
     Cannot be verified as accurate (confidence 1)  [8DAC0F01], AccurateRip returned [506E7086]
     Copy OK
Track  8
     Filename F:\ЗАГРУЗКИ\Relax Cafe 4CD (2011)\CD2 Relax Cafe Dj Sajem\08. Track08 - Track08.wav
     Peak level 70.8 %
     Extraction speed 6.5 X
     Track quality 100.0 %
     Test CRC F5222F04
     Copy CRC F5222F04
     Cannot be verified as accurate (confidence 1)  [E59924E6], AccurateRip returned [E8AEDB61]
     Copy OK
Track  9
     Filename F:\ЗАГРУЗКИ\Relax Cafe 4CD (2011)\CD2 Relax Cafe Dj Sajem\09. Track09 - Track09.wav
     Peak level 93.9 %
     Extraction speed 6.6 X
     Track quality 100.0 %
     Test CRC 3EB43107
     Copy CRC 3EB43107
     Cannot be verified as accurate (confidence 1)  [9976BA11], AccurateRip returned [69AF14AE]
     Copy OK
Track 10
     Filename F:\ЗАГРУЗКИ\Relax Cafe 4CD (2011)\CD2 Relax Cafe Dj Sajem\10. Track10 - Track10.wav
     Peak level 100.0 %
     Extraction speed 6.7 X
     Track quality 100.0 %
     Test CRC 0F2C071D
     Copy CRC 0F2C071D
     Cannot be verified as accurate (confidence 1)  [F6A8D2A0], AccurateRip returned [0A728D6E]
     Copy OK
Track 11
     Filename F:\ЗАГРУЗКИ\Relax Cafe 4CD (2011)\CD2 Relax Cafe Dj Sajem\11. Track11 - Track11.wav
     Peak level 96.4 %
     Extraction speed 6.8 X
     Track quality 100.0 %
     Test CRC 1F849D28
     Copy CRC 1F849D28
     Cannot be verified as accurate (confidence 1)  [EE3B1ECF], AccurateRip returned [EB0C5D42]
     Copy OK
Track 12
     Filename F:\ЗАГРУЗКИ\Relax Cafe 4CD (2011)\CD2 Relax Cafe Dj Sajem\12. Track12 - Track12.wav
     Peak level 98.6 %
     Extraction speed 7.0 X
     Track quality 100.0 %
     Test CRC 2EED28F6
     Copy CRC 2EED28F6
     Cannot be verified as accurate (confidence 1)  [1F065A8C], AccurateRip returned [F30D5BC4]
     Copy OK
Track 13
     Filename F:\ЗАГРУЗКИ\Relax Cafe 4CD (2011)\CD2 Relax Cafe Dj Sajem\13. Track13 - Track13.wav
     Peak level 62.8 %
     Extraction speed 7.3 X
     Track quality 100.0 %
     Test CRC 68F8E690
     Copy CRC 68F8E690
     Cannot be verified as accurate (confidence 1)  [841EF57D], AccurateRip returned [7C2F018B]
     Copy OK
Track 14
     Filename F:\ЗАГРУЗКИ\Relax Cafe 4CD (2011)\CD2 Relax Cafe Dj Sajem\14. Track14 - Track14.wav
     Peak level 100.0 %
     Extraction speed 7.2 X
     Track quality 100.0 %
     Test CRC CDEF0563
     Copy CRC CDEF0563
     Cannot be verified as accurate (confidence 1)  [646F277A], AccurateRip returned [FCADCF01]
     Copy OK
No tracks could be verified as accurate
You may have a different pressing from the one(s) in the database
No errors occurred
End of status report
==== Log checksum E47B03E47C52F227A8F525141B811F9AC30984F8E1766336B5C614054FC414A0 ====

Содержание индексной карты (.CUE)

Код:
REM GENRE Lounge
REM DATE 2011
REM DISCID D30E3A0E
REM COMMENT "ExactAudioCopy v1.0b1"
PERFORMER "Various"
TITLE "Relax Cafe DJ Sajem CD2"
FILE "01. Track01 - Track01.wav" WAVE
  TRACK 01 AUDIO
    TITLE "Track01"
    PERFORMER "Track01"
    INDEX 01 00:00:00
FILE "02. Track02 - Track02.wav" WAVE
  TRACK 02 AUDIO
    TITLE "Track02"
    PERFORMER "Track02"
    INDEX 01 00:00:00
FILE "03. Track03 - Track03.wav" WAVE
  TRACK 03 AUDIO
    TITLE "Track03"
    PERFORMER "Track03"
    INDEX 01 00:00:00
FILE "04. Track04 - Track04.wav" WAVE
  TRACK 04 AUDIO
    TITLE "Track04"
    PERFORMER "Track04"
    INDEX 01 00:00:00
FILE "05. Track05 - Track05.wav" WAVE
  TRACK 05 AUDIO
    TITLE "Track05"
    PERFORMER "Track05"
    INDEX 01 00:00:00
FILE "06. Track06 - Track06.wav" WAVE
  TRACK 06 AUDIO
    TITLE "Track06"
    PERFORMER "Track06"
    INDEX 01 00:00:00
FILE "07. Track07 - Track07.wav" WAVE
  TRACK 07 AUDIO
    TITLE "Track07"
    PERFORMER "Track07"
    INDEX 01 00:00:00
FILE "08. Track08 - Track08.wav" WAVE
  TRACK 08 AUDIO
    TITLE "Track08"
    PERFORMER "Track08"
    INDEX 01 00:00:00
FILE "09. Track09 - Track09.wav" WAVE
  TRACK 09 AUDIO
    TITLE "Track09"
    PERFORMER "Track09"
    INDEX 01 00:00:00
FILE "10. Track10 - Track10.wav" WAVE
  TRACK 10 AUDIO
    TITLE "Track10"
    PERFORMER "Track10"
    INDEX 01 00:00:00
FILE "11. Track11 - Track11.wav" WAVE
  TRACK 11 AUDIO
    TITLE "Track11"
    PERFORMER "Track11"
    INDEX 01 00:00:00
FILE "12. Track12 - Track12.wav" WAVE
  TRACK 12 AUDIO
    TITLE "Track12"
    PERFORMER "Track12"
    INDEX 01 00:00:00
FILE "13. Track13 - Track13.wav" WAVE
  TRACK 13 AUDIO
    TITLE "Track13"
    PERFORMER "Track13"
    INDEX 01 00:00:00
FILE "14. Track14 - Track14.wav" WAVE
  TRACK 14 AUDIO
    TITLE "Track14"
    PERFORMER "Track14"
    INDEX 01 00:00:00
Время звучания: 1:00:42

СD3 Relax Cafe

Треклист

1. Track01 - Track01 (3:48)
2. Track02 - Track02 (5:54)
3. Track03 - Track03 (3:47)
4. Track04 - Track04 (4:00)
5. Track05 - Track05 (3:06)
6. Track06 - Track06 (3:47)
7. Track07 - Track07 (5:53)
8. Track08 - Track08 (3:43)
9. Track09 - Track09 (4:26)
10. Track10 - Track10 (5:14)
11. Track11 - Track11 (6:09)
12. Track12 - Track12 (2:40)
13. Track13 - Track13 (11:08)
14. Track14 - Track14 (7:29)

Лог создания рипа

Код:
Exact Audio Copy V1.0 beta 1 from 15. November 2010
EAC extraction logfile from 23. December 2011, 23:28
Various / Relax Cafe CD3
Used drive  : PLEXTOR DVDR   PX-L890SA   Adapter: 5  ID: 0
Read mode               : Secure
Utilize accurate stream : Yes
Defeat audio cache      : Yes
Make use of C2 pointers : No
Read offset correction                      : 6
Overread into Lead-In and Lead-Out          : No
Fill up missing offset samples with silence : Yes
Delete leading and trailing silent blocks   : No
Null samples used in CRC calculations       : Yes
Used interface                              : Native Win32 interface for Win NT & 2000
Gap handling                                : Appended to previous track
Used output format              : Monkey's Audio Lossless Encoder
Selected bitrate                : Fast Lossless Compression
Quality                         : High
Add ID3 tag                     : Yes
Command line compressor         : C:\Program Files\Exact Audio Copy\Mac\MAC.exe
Additional command line options : %dest% -t "Genre=%genre%" -t "Artist=%artist%" -t "Title=%title%" -t "Album=%albumtitle%" -t "Year=%year%" -t "Track=%tracknr%" -t "Comment=%comment%" mac.exe %source% %dest% -c3000
TOC of the extracted CD
     Track |   Start  |  Length  | Start sector | End sector
    ---------------------------------------------------------
        1  |  0:00.00 |  3:48.36 |         0    |    17135
        2  |  3:48.36 |  5:53.52 |     17136    |    43662
        3  |  9:42.13 |  3:46.41 |     43663    |    60653
        4  | 13:28.54 |  3:59.48 |     60654    |    78626
        5  | 17:28.27 |  3:05.64 |     78627    |    92565
        6  | 20:34.16 |  3:47.28 |     92566    |   109618
        7  | 24:21.44 |  5:53.10 |    109619    |   136103
        8  | 30:14.54 |  3:42.63 |    136104    |   152816
        9  | 33:57.42 |  4:25.41 |    152817    |   172732
       10  | 38:23.08 |  5:14.16 |    172733    |   196298
       11  | 43:37.24 |  6:09.36 |    196299    |   224009
       12  | 49:46.60 |  2:40.10 |    224010    |   236019
       13  | 52:26.70 | 11:08.00 |    236020    |   286119
       14  | 63:34.70 |  7:28.63 |    286120    |   319782
Track  1
     Filename F:\ЗАГРУЗКИ\Relax Cafe 4CD (2011)\CD3 Relax Cafe\01. Track01 - Track01.wav
     Pre-gap length  0:00:02.00
     Peak level 86.6 %
     Extraction speed 3.0 X
     Track quality 99.9 %
     Test CRC 1FC2D85F
     Copy CRC 1FC2D85F
     Track not present in AccurateRip database
     Copy OK
Track  2
     Filename F:\ЗАГРУЗКИ\Relax Cafe 4CD (2011)\CD3 Relax Cafe\02. Track02 - Track02.wav
     Peak level 97.6 %
     Extraction speed 4.5 X
     Track quality 100.0 %
     Test CRC 168B12D2
     Copy CRC 168B12D2
     Track not present in AccurateRip database
     Copy OK
Track  3
     Filename F:\ЗАГРУЗКИ\Relax Cafe 4CD (2011)\CD3 Relax Cafe\03. Track03 - Track03.wav
     Peak level 86.3 %
     Extraction speed 4.7 X
     Track quality 100.0 %
     Test CRC 9BF96169
     Copy CRC 9BF96169
     Track not present in AccurateRip database
     Copy OK
Track  4
     Filename F:\ЗАГРУЗКИ\Relax Cafe 4CD (2011)\CD3 Relax Cafe\04. Track04 - Track04.wav
     Peak level 91.2 %
     Extraction speed 5.0 X
     Track quality 100.0 %
     Test CRC 4041D020
     Copy CRC 4041D020
     Track not present in AccurateRip database
     Copy OK
Track  5
     Filename F:\ЗАГРУЗКИ\Relax Cafe 4CD (2011)\CD3 Relax Cafe\05. Track05 - Track05.wav
     Peak level 86.0 %
     Extraction speed 5.0 X
     Track quality 100.0 %
     Test CRC 19417673
     Copy CRC 19417673
     Track not present in AccurateRip database
     Copy OK
Track  6
     Filename F:\ЗАГРУЗКИ\Relax Cafe 4CD (2011)\CD3 Relax Cafe\06. Track06 - Track06.wav
     Peak level 88.3 %
     Extraction speed 5.4 X
     Track quality 100.0 %
     Test CRC 1BF7D19B
     Copy CRC 1BF7D19B
     Track not present in AccurateRip database
     Copy OK
Track  7
     Filename F:\ЗАГРУЗКИ\Relax Cafe 4CD (2011)\CD3 Relax Cafe\07. Track07 - Track07.wav
     Peak level 96.3 %
     Extraction speed 6.1 X
     Track quality 100.0 %
     Test CRC 2B823CAD
     Copy CRC 2B823CAD
     Track not present in AccurateRip database
     Copy OK
Track  8
     Filename F:\ЗАГРУЗКИ\Relax Cafe 4CD (2011)\CD3 Relax Cafe\08. Track08 - Track08.wav
     Peak level 93.1 %
     Extraction speed 4.6 X
     Track quality 99.9 %
     Test CRC F40AB6F8
     Copy CRC F40AB6F8
     Track not present in AccurateRip database
     Copy OK
Track  9
     Filename F:\ЗАГРУЗКИ\Relax Cafe 4CD (2011)\CD3 Relax Cafe\09. Track09 - Track09.wav
     Peak level 100.0 %
     Extraction speed 6.4 X
     Track quality 100.0 %
     Test CRC 2332F874
     Copy CRC 2332F874
     Track not present in AccurateRip database
     Copy OK
Track 10
     Filename F:\ЗАГРУЗКИ\Relax Cafe 4CD (2011)\CD3 Relax Cafe\10. Track10 - Track10.wav
     Peak level 92.4 %
     Extraction speed 6.8 X
     Track quality 100.0 %
     Test CRC 219D6D41
     Copy CRC 219D6D41
     Track not present in AccurateRip database
     Copy OK
Track 11
     Filename F:\ЗАГРУЗКИ\Relax Cafe 4CD (2011)\CD3 Relax Cafe\11. Track11 - Track11.wav
     Peak level 98.0 %
     Extraction speed 7.2 X
     Track quality 100.0 %
     Test CRC FFE076F4
     Copy CRC FFE076F4
     Track not present in AccurateRip database
     Copy OK
Track 12
     Filename F:\ЗАГРУЗКИ\Relax Cafe 4CD (2011)\CD3 Relax Cafe\12. Track12 - Track12.wav
     Peak level 93.1 %
     Extraction speed 6.7 X
     Track quality 100.0 %
     Test CRC CCE23212
     Copy CRC CCE23212
     Track not present in AccurateRip database
     Copy OK
Track 13
     Filename F:\ЗАГРУЗКИ\Relax Cafe 4CD (2011)\CD3 Relax Cafe\13. Track13 - Track13.wav
     Peak level 93.4 %
     Extraction speed 8.2 X
     Track quality 100.0 %
     Test CRC 22EF1173
     Copy CRC 22EF1173
     Track not present in AccurateRip database
     Copy OK
Track 14
     Filename F:\ЗАГРУЗКИ\Relax Cafe 4CD (2011)\CD3 Relax Cafe\14. Track14 - Track14.wav
     Peak level 95.1 %
     Extraction speed 8.3 X
     Track quality 100.0 %
     Test CRC C6647FC4
     Copy CRC C6647FC4
     Track not present in AccurateRip database
     Copy OK
None of the tracks are present in the AccurateRip database
No errors occurred
End of status report
==== Log checksum 1360139DA4B404D689697E24EC679E3700E564DDAF1AEE1B25D8AB4A3AD90CDF ====

Содержание индексной карты (.CUE)

Код:
REM GENRE Lounge
REM DATE 2011
REM DISCID B810A70E
REM COMMENT "ExactAudioCopy v1.0b1"
PERFORMER "Various"
TITLE "Relax Cafe CD3"
FILE "01. Track01 - Track01.wav" WAVE
  TRACK 01 AUDIO
    TITLE "Track01"
    PERFORMER "Track01"
    INDEX 01 00:00:00
FILE "02. Track02 - Track02.wav" WAVE
  TRACK 02 AUDIO
    TITLE "Track02"
    PERFORMER "Track02"
    INDEX 01 00:00:00
FILE "03. Track03 - Track03.wav" WAVE
  TRACK 03 AUDIO
    TITLE "Track03"
    PERFORMER "Track03"
    INDEX 01 00:00:00
FILE "04. Track04 - Track04.wav" WAVE
  TRACK 04 AUDIO
    TITLE "Track04"
    PERFORMER "Track04"
    INDEX 01 00:00:00
FILE "05. Track05 - Track05.wav" WAVE
  TRACK 05 AUDIO
    TITLE "Track05"
    PERFORMER "Track05"
    INDEX 01 00:00:00
FILE "06. Track06 - Track06.wav" WAVE
  TRACK 06 AUDIO
    TITLE "Track06"
    PERFORMER "Track06"
    INDEX 01 00:00:00
FILE "07. Track07 - Track07.wav" WAVE
  TRACK 07 AUDIO
    TITLE "Track07"
    PERFORMER "Track07"
    INDEX 01 00:00:00
FILE "08. Track08 - Track08.wav" WAVE
  TRACK 08 AUDIO
    TITLE "Track08"
    PERFORMER "Track08"
    INDEX 01 00:00:00
FILE "09. Track09 - Track09.wav" WAVE
  TRACK 09 AUDIO
    TITLE "Track09"
    PERFORMER "Track09"
    INDEX 01 00:00:00
FILE "10. Track10 - Track10.wav" WAVE
  TRACK 10 AUDIO
    TITLE "Track10"
    PERFORMER "Track10"
    INDEX 01 00:00:00
FILE "11. Track11 - Track11.wav" WAVE
  TRACK 11 AUDIO
    TITLE "Track11"
    PERFORMER "Track11"
    INDEX 01 00:00:00
FILE "12. Track12 - Track12.wav" WAVE
  TRACK 12 AUDIO
    TITLE "Track12"
    PERFORMER "Track12"
    INDEX 01 00:00:00
FILE "13. Track13 - Track13.wav" WAVE
  TRACK 13 AUDIO
    TITLE "Track13"
    PERFORMER "Track13"
    INDEX 01 00:00:00
FILE "14. Track14 - Track14.wav" WAVE
  TRACK 14 AUDIO
    TITLE "Track14"
    PERFORMER "Track14"
    INDEX 01 00:00:00
Время звучания: 1:11:03

СD4 Dj Sajem

Треклист

1. Track01 - Track01 (4:55)
2. Track02 - Track02 (6:21)
3. Track03 - Track03 (4:54)
4. Track04 - Track04 (4:45)
5. Track05 - Track05 (5:45)
6. Track06 - Track06 (4:41)
7. Track07 - Track07 (6:15)
8. Track08 - Track08 (4:56)
9. Track09 - Track09 (5:29)
10. Track10 - Track10 (3:52)
11. Track11 - Track11 (5:53)
12. Track12 - Track12 (4:49)
13. Track13 - Track13 (6:56)

Лог создания рипа

Код:
Exact Audio Copy V1.0 beta 1 from 15. November 2010
EAC extraction logfile from 25. December 2011, 20:37
Various / Cafe Relax Dj Sajem CD4
Used drive  : PLEXTOR DVDR   PX-L890SA   Adapter: 5  ID: 0
Read mode               : Secure
Utilize accurate stream : Yes
Defeat audio cache      : Yes
Make use of C2 pointers : No
Read offset correction                      : 6
Overread into Lead-In and Lead-Out          : No
Fill up missing offset samples with silence : Yes
Delete leading and trailing silent blocks   : No
Null samples used in CRC calculations       : Yes
Used interface                              : Native Win32 interface for Win NT & 2000
Gap handling                                : Appended to previous track
Used output format              : Monkey's Audio Lossless Encoder
Selected bitrate                : Fast Lossless Compression
Quality                         : High
Add ID3 tag                     : Yes
Command line compressor         : C:\Program Files\Exact Audio Copy\Mac\MAC.exe
Additional command line options : %dest% -t "Genre=%genre%" -t "Artist=%artist%" -t "Title=%title%" -t "Album=%albumtitle%" -t "Year=%year%" -t "Track=%tracknr%" -t "Comment=%comment%" mac.exe %source% %dest% -c3000
TOC of the extracted CD
     Track |   Start  |  Length  | Start sector | End sector
    ---------------------------------------------------------
        1  |  0:00.00 |  4:55.18 |         0    |    22142
        2  |  4:55.18 |  6:21.07 |     22143    |    50724
        3  | 11:16.25 |  4:54.07 |     50725    |    72781
        4  | 16:10.32 |  4:44.51 |     72782    |    94132
        5  | 20:55.08 |  5:45.31 |     94133    |   120038
        6  | 26:40.39 |  4:40.56 |    120039    |   141094
        7  | 31:21.20 |  6:14.50 |    141095    |   169194
        8  | 37:35.70 |  4:56.01 |    169195    |   191395
        9  | 42:31.71 |  5:28.67 |    191396    |   216062
       10  | 48:00.63 |  3:51.56 |    216063    |   233443
       11  | 51:52.44 |  5:52.42 |    233444    |   259885
       12  | 57:45.11 |  4:48.60 |    259886    |   281545
       13  | 62:33.71 |  6:56.00 |    281546    |   312745
Track  1
     Filename F:\ЗАГРУЗКИ\Relax Cafe 4CD (2011)\CD4 Relax Cafe Dj Sajem\01. Track01 - Track01.wav
     Pre-gap length  0:00:02.00
     Peak level 96.1 %
     Extraction speed 4.0 X
     Track quality 100.0 %
     Test CRC 391E52A9
     Copy CRC 391E52A9
     Cannot be verified as accurate (confidence 1)  [5BEF22F9], AccurateRip returned [52D917E6]
     Copy OK
Track  2
     Filename F:\ЗАГРУЗКИ\Relax Cafe 4CD (2011)\CD4 Relax Cafe Dj Sajem\02. Track02 - Track02.wav
     Peak level 100.0 %
     Extraction speed 4.7 X
     Track quality 100.0 %
     Test CRC ECDD6513
     Copy CRC ECDD6513
     Cannot be verified as accurate (confidence 1)  [9560F9B3], AccurateRip returned [0B814891]
     Copy OK
Track  3
     Filename F:\ЗАГРУЗКИ\Relax Cafe 4CD (2011)\CD4 Relax Cafe Dj Sajem\03. Track03 - Track03.wav
     Peak level 98.6 %
     Extraction speed 5.0 X
     Track quality 100.0 %
     Test CRC 92D0ABED
     Copy CRC 92D0ABED
     Cannot be verified as accurate (confidence 1)  [C9AF5A77], AccurateRip returned [62011363]
     Copy OK
Track  4
     Filename F:\ЗАГРУЗКИ\Relax Cafe 4CD (2011)\CD4 Relax Cafe Dj Sajem\04. Track04 - Track04.wav
     Peak level 100.0 %
     Extraction speed 5.3 X
     Track quality 100.0 %
     Test CRC 4DC483F4
     Copy CRC 4DC483F4
     Cannot be verified as accurate (confidence 1)  [ABA35781], AccurateRip returned [C71F147D]
     Copy OK
Track  5
     Filename F:\ЗАГРУЗКИ\Relax Cafe 4CD (2011)\CD4 Relax Cafe Dj Sajem\05. Track05 - Track05.wav
     Peak level 93.4 %
     Extraction speed 5.8 X
     Track quality 100.0 %
     Test CRC 138A9D44
     Copy CRC 138A9D44
     Cannot be verified as accurate (confidence 1)  [992B4A78], AccurateRip returned [14FBC6D0]
     Copy OK
Track  6
     Filename F:\ЗАГРУЗКИ\Relax Cafe 4CD (2011)\CD4 Relax Cafe Dj Sajem\06. Track06 - Track06.wav
     Peak level 79.5 %
     Extraction speed 6.0 X
     Track quality 100.0 %
     Test CRC A5AA3B11
     Copy CRC A5AA3B11
     Cannot be verified as accurate (confidence 1)  [6014655E], AccurateRip returned [8B142797]
     Copy OK
Track  7
     Filename F:\ЗАГРУЗКИ\Relax Cafe 4CD (2011)\CD4 Relax Cafe Dj Sajem\07. Track07 - Track07.wav
     Peak level 88.9 %
     Extraction speed 6.5 X
     Track quality 100.0 %
     Test CRC 22369A37
     Copy CRC 22369A37
     Cannot be verified as accurate (confidence 1)  [B9A82667], AccurateRip returned [43451619]
     Copy OK
Track  8
     Filename F:\ЗАГРУЗКИ\Relax Cafe 4CD (2011)\CD4 Relax Cafe Dj Sajem\08. Track08 - Track08.wav
     Peak level 79.1 %
     Extraction speed 6.7 X
     Track quality 100.0 %
     Test CRC 1A26F79E
     Copy CRC 1A26F79E
     Cannot be verified as accurate (confidence 1)  [5886283A], AccurateRip returned [E5F4A3B2]
     Copy OK
Track  9
     Filename F:\ЗАГРУЗКИ\Relax Cafe 4CD (2011)\CD4 Relax Cafe Dj Sajem\09. Track09 - Track09.wav
     Peak level 90.9 %
     Extraction speed 7.0 X
     Track quality 100.0 %
     Test CRC 29205EE1
     Copy CRC 29205EE1
     Cannot be verified as accurate (confidence 1)  [C2960803], AccurateRip returned [8F9AC8E4]
     Copy OK
Track 10
     Filename F:\ЗАГРУЗКИ\Relax Cafe 4CD (2011)\CD4 Relax Cafe Dj Sajem\10. Track10 - Track10.wav
     Peak level 95.9 %
     Extraction speed 5.5 X
     Track quality 99.9 %
     Test CRC 9EF1C2A0
     Copy CRC 9EF1C2A0
     Cannot be verified as accurate (confidence 1)  [91A49F64], AccurateRip returned [3034B937]
     Copy OK
Track 11
     Filename F:\ЗАГРУЗКИ\Relax Cafe 4CD (2011)\CD4 Relax Cafe Dj Sajem\11. Track11 - Track11.wav
     Peak level 68.8 %
     Extraction speed 7.6 X
     Track quality 100.0 %
     Test CRC 7EAF6639
     Copy CRC 7EAF6639
     Cannot be verified as accurate (confidence 1)  [59D168E4], AccurateRip returned [B8E49CBE]
     Copy OK
Track 12
     Filename F:\ЗАГРУЗКИ\Relax Cafe 4CD (2011)\CD4 Relax Cafe Dj Sajem\12. Track12 - Track12.wav
     Peak level 58.2 %
     Extraction speed 7.7 X
     Track quality 100.0 %
     Test CRC D66C7E1F
     Copy CRC D66C7E1F
     Cannot be verified as accurate (confidence 1)  [BC4A6CEB], AccurateRip returned [43AEE2E4]
     Copy OK
Track 13
     Filename F:\ЗАГРУЗКИ\Relax Cafe 4CD (2011)\CD4 Relax Cafe Dj Sajem\13. Track13 - Track13.wav
     Peak level 68.1 %
     Extraction speed 8.3 X
     Track quality 100.0 %
     Test CRC 08441355
     Copy CRC 08441355
     Cannot be verified as accurate (confidence 1)  [379031F7], AccurateRip returned [B0E551EB]
     Copy OK
No tracks could be verified as accurate
You may have a different pressing from the one(s) in the database
No errors occurred
End of status report
==== Log checksum A7040DD22B469085A66946C1BA86389FE048658E826852D959F5ABE73E501E0E ====

Содержание индексной карты (.CUE)

Код:
REM GENRE Lounge
REM DATE 2011
REM DISCID CB10490D
REM COMMENT "ExactAudioCopy v1.0b1"
PERFORMER "Various"
TITLE "Cafe Relax Dj Sajem CD4"
FILE "01. Track01 - Track01.wav" WAVE
  TRACK 01 AUDIO
    TITLE "Track01"
    PERFORMER "Track01"
    INDEX 01 00:00:00
FILE "02. Track02 - Track02.wav" WAVE
  TRACK 02 AUDIO
    TITLE "Track02"
    PERFORMER "Track02"
    INDEX 01 00:00:00
FILE "03. Track03 - Track03.wav" WAVE
  TRACK 03 AUDIO
    TITLE "Track03"
    PERFORMER "Track03"
    INDEX 01 00:00:00
FILE "04. Track04 - Track04.wav" WAVE
  TRACK 04 AUDIO
    TITLE "Track04"
    PERFORMER "Track04"
    INDEX 01 00:00:00
FILE "05. Track05 - Track05.wav" WAVE
  TRACK 05 AUDIO
    TITLE "Track05"
    PERFORMER "Track05"
    INDEX 01 00:00:00
FILE "06. Track06 - Track06.wav" WAVE
  TRACK 06 AUDIO
    TITLE "Track06"
    PERFORMER "Track06"
    INDEX 01 00:00:00
FILE "07. Track07 - Track07.wav" WAVE
  TRACK 07 AUDIO
    TITLE "Track07"
    PERFORMER "Track07"
    INDEX 01 00:00:00
FILE "08. Track08 - Track08.wav" WAVE
  TRACK 08 AUDIO
    TITLE "Track08"
    PERFORMER "Track08"
    INDEX 01 00:00:00
FILE "09. Track09 - Track09.wav" WAVE
  TRACK 09 AUDIO
    TITLE "Track09"
    PERFORMER "Track09"
    INDEX 01 00:00:00
FILE "10. Track10 - Track10.wav" WAVE
  TRACK 10 AUDIO
    TITLE "Track10"
    PERFORMER "Track10"
    INDEX 01 00:00:00
FILE "11. Track11 - Track11.wav" WAVE
  TRACK 11 AUDIO
    TITLE "Track11"
    PERFORMER "Track11"
    INDEX 01 00:00:00
FILE "12. Track12 - Track12.wav" WAVE
  TRACK 12 AUDIO
    TITLE "Track12"
    PERFORMER "Track12"
    INDEX 01 00:00:00
FILE "13. Track13 - Track13.wav" WAVE
  TRACK 13 AUDIO
    TITLE "Track13"
    PERFORMER "Track13"
    INDEX 01 00:00:00
Время звучания: 1:09:29
-Доп. информация:Внимание!!! Треклист в данной сборке не предусмотрен производителем.

_________________
Other forum [Profile] [PM]
Display posts from previous:    
Reply to topic

The time now is: Today 14:00

All times are GMT + 3 Hours



You cannot post new topics in this forum
You cannot reply to topics in this forum
You cannot edit your posts in this forum
You cannot delete your posts in this forum
You cannot vote in polls in this forum
You cannot attach files in this forum
You cannot download files in this forum