Today is a free download without charge Download

Trijntje Oosterhuis & Jazz Orchestra Of The Concertgebouw - Wonderful Christmastime (2020) Blue Note [FLAC|Lossless|tracks + .cue] <Vocal Jazz>

Reply to topic
 
Author
Message

Soldat_5 ®

Longevity: 1 year 3 months

Posts: 172

Торрент-статистика

Post 23-Dec-2020 14:08

[Quote]

Trijntje Oosterhuis & Jazz Orchestra Of The Concertgebouw - Wonderful Christmastime (2020) Blue Note - Жанр: Vocal Jazz
Издание: Blue Note - 351 983-4
Продолжительность: 01:00:37
Кодек: FLAC (tracks+.cue)
Битрейт: Lossless
Источник (релизер): fiks22
Страна-производитель диска: EU
Наличие сканов в содержимом раздачи: да
Треклист:
01. It's the Most Wonderful Time of the Year [3:33]
02. Wonderful Christmastime (feat. Candy Dulfer) [4:46]
03. Someday at Christmas (duet with Jeangu Macrooy) [4:11]
04. Santa Claus Is Coming to Town [4:00]
05. This Christmas (duet with Steffen Morrison) [3:31]
06. Sleigh Ride [4:32]
07. Winter Wonderland [3:47]
08. What a Wonderful World [5:47]
09. Baby, It's Cold Outside (duet with Alain Clark) [4:34]
10. The Christmas Song [5:12]
11. It's Beginning to Look a Lot Like Christmas [3:24]
12. All I Want for Christmas Is You [6:31]
13. Santa's Got the Blues/Someday at Christmas (Reprise) [6:51]

Отчёт EAC&#58;

Exact Audio Copy V1.3 from 2. September 2016
EAC extraction logfile from 14. December 2020, 19:32
Trijntje Oosterhuis / Wonderful Christmastime
Used drive : PLEXTOR PX-891SAF Adapter: 1 ID: 0
Read mode : Secure
Utilize accurate stream : Yes
Defeat audio cache : Yes
Make use of C2 pointers : No
Read offset correction : 6
Overread into Lead-In and Lead-Out : No
Fill up missing offset samples with silence : Yes
Delete leading and trailing silent blocks : No
Null samples used in CRC calculations : Yes
Used interface : Native Win32 interface for Win NT & 2000
Gap handling : Appended to previous track
Used output format : User Defined Encoder
Selected bitrate : 1024 kBit/s
Quality : High
Add ID3 tag : No
Command line compressor : C:\Program Files (x86)\Exact Audio Copy\Flac\flac.exe
Additional command line options : -8 -V -T "ARTIST=%artist%" -T "TITLE=%title%" -T "ALBUM=%albumtitle%" -T "DATE=%year%" -T "TRACKNUMBER=%tracknr%" -T "GENRE=%genre%" -T "PERFORMER=%albuminterpret%" -T "COMPOSER=%composer%" %haslyrics%--tag-from-file=LYRICS="%lyricsfile%"%haslyrics% -T "ALBUMARTIST=%albumartist%" -T "DISCNUMBER=%cdnumber%" -T "TOTALDISCS=%totalcds%" -T "TOTALTRACKS=%numtracks%" -T "COMMENT=%comment%" %source% -o %dest%
TOC of the extracted CD
Track | Start | Length | Start sector | End sector
---------------------------------------------------------
1 | 0:00.00 | 3:32.60 | 0 | 15959
2 | 3:32.60 | 4:45.42 | 15960 | 37376
3 | 8:18.27 | 4:10.56 | 37377 | 56182
4 | 12:29.08 | 3:59.72 | 56183 | 74179
5 | 16:29.05 | 3:30.40 | 74180 | 89969
6 | 19:59.45 | 4:32.15 | 89970 | 110384
7 | 24:31.60 | 3:47.24 | 110385 | 127433
8 | 28:19.09 | 5:46.52 | 127434 | 153435
9 | 34:05.61 | 4:34.03 | 153436 | 173988
10 | 38:39.64 | 5:11.59 | 173989 | 197372
11 | 43:51.48 | 3:23.50 | 197373 | 212647
12 | 47:15.23 | 6:30.49 | 212648 | 241946
13 | 53:45.72 | 6:50.43 | 241947 | 272739
Track 1
Filename D:\#cdr\#wav+flac\#New\Trijntje Oosterhuis - Wonderful Christmastime\01. Trijntje Oosterhuis - It's The Most Wonderful Time Of The Year.wav
Pre-gap length 0:00:02.00
Peak level 90.0 %
Extraction speed 4.1 X
Track quality 99.9 %
Test CRC 59D92536
Copy CRC 59D92536
Track not present in AccurateRip database
Copy OK
Track 2
Filename D:\#cdr\#wav+flac\#New\Trijntje Oosterhuis - Wonderful Christmastime\02. Trijntje Oosterhuis - Wonderful Christmastime.wav
Peak level 89.4 %
Extraction speed 5.7 X
Track quality 100.0 %
Test CRC F2312174
Copy CRC F2312174
Track not present in AccurateRip database
Copy OK
Track 3
Filename D:\#cdr\#wav+flac\#New\Trijntje Oosterhuis - Wonderful Christmastime\03. Trijntje Oosterhuis - Someday At Christmas.wav
Peak level 89.1 %
Extraction speed 6.1 X
Track quality 100.0 %
Test CRC 085B2972
Copy CRC 085B2972
Track not present in AccurateRip database
Copy OK
Track 4
Filename D:\#cdr\#wav+flac\#New\Trijntje Oosterhuis - Wonderful Christmastime\04. Trijntje Oosterhuis - Santa Claus Is Coming To Town.wav
Peak level 90.2 %
Extraction speed 6.5 X
Track quality 100.0 %
Test CRC B6247737
Copy CRC B6247737
Track not present in AccurateRip database
Copy OK
Track 5
Filename D:\#cdr\#wav+flac\#New\Trijntje Oosterhuis - Wonderful Christmastime\05. Trijntje Oosterhuis - This Christmas.wav
Peak level 90.3 %
Extraction speed 6.8 X
Track quality 100.0 %
Test CRC 9203A9B9
Copy CRC 9203A9B9
Track not present in AccurateRip database
Copy OK
Track 6
Filename D:\#cdr\#wav+flac\#New\Trijntje Oosterhuis - Wonderful Christmastime\06. Trijntje Oosterhuis - Sleigh Ride.wav
Peak level 89.7 %
Extraction speed 7.4 X
Track quality 100.0 %
Test CRC A671BF71
Copy CRC A671BF71
Track not present in AccurateRip database
Copy OK
Track 7
Filename D:\#cdr\#wav+flac\#New\Trijntje Oosterhuis - Wonderful Christmastime\07. Trijntje Oosterhuis - Winter Wonderland.wav
Peak level 90.3 %
Extraction speed 7.6 X
Track quality 100.0 %
Test CRC 8395084A
Copy CRC 8395084A
Track not present in AccurateRip database
Copy OK
Track 8
Filename D:\#cdr\#wav+flac\#New\Trijntje Oosterhuis - Wonderful Christmastime\08. Trijntje Oosterhuis - What A Wonderful World.wav
Peak level 89.5 %
Extraction speed 8.3 X
Track quality 100.0 %
Test CRC 21476AB6
Copy CRC 21476AB6
Track not present in AccurateRip database
Copy OK
Track 9
Filename D:\#cdr\#wav+flac\#New\Trijntje Oosterhuis - Wonderful Christmastime\09. Trijntje Oosterhuis - Baby, It's Cold Outside.wav
Peak level 90.0 %
Extraction speed 8.6 X
Track quality 100.0 %
Test CRC 3F436011
Copy CRC 3F436011
Track not present in AccurateRip database
Copy OK
Track 10
Filename D:\#cdr\#wav+flac\#New\Trijntje Oosterhuis - Wonderful Christmastime\10. Trijntje Oosterhuis - The Christmas Song.wav
Peak level 89.2 %
Extraction speed 9.0 X
Track quality 100.0 %
Test CRC 11D68A17
Copy CRC 11D68A17
Track not present in AccurateRip database
Copy OK
Track 11
Filename D:\#cdr\#wav+flac\#New\Trijntje Oosterhuis - Wonderful Christmastime\11. Trijntje Oosterhuis - It's Beginning To Look A Lot Like Christmas.wav
Peak level 89.8 %
Extraction speed 8.9 X
Track quality 100.0 %
Test CRC 9133A9CC
Copy CRC 9133A9CC
Track not present in AccurateRip database
Copy OK
Track 12
Filename D:\#cdr\#wav+flac\#New\Trijntje Oosterhuis - Wonderful Christmastime\12. Trijntje Oosterhuis - All I Want For Christmas Is You.wav
Peak level 89.4 %
Extraction speed 9.9 X
Track quality 100.0 %
Test CRC CE2CADFC
Copy CRC CE2CADFC
Track not present in AccurateRip database
Copy OK
Track 13
Filename D:\#cdr\#wav+flac\#New\Trijntje Oosterhuis - Wonderful Christmastime\13. Trijntje Oosterhuis - Santa's Got The Blues - Someday At Christmas.wav
Peak level 89.5 %
Extraction speed 10.3 X
Track quality 100.0 %
Test CRC 7ECC842E
Copy CRC 7ECC842E
Track not present in AccurateRip database
Copy OK
None of the tracks are present in the AccurateRip database
No errors occurred
End of status report
---- CUETools DB Plugin V2.1.6
[CTDB TOCID: r59Z9Gl7KKiKWw2SyTUR3FQfWjQ-] disk not present in database
Submit result: r59Z9Gl7KKiKWw2SyTUR3FQfWjQ- has been uploaded
==== Log checksum A2124BDFB87EE3664D2A1682E3757D0B6FC24AEA74F280FF9B08D34C2753EC30 ====
Время раздачи: c 15:00 до 22:00 (до появления первых 3-5 скачавших)
Other forum [Profile] [PM]
Display posts from previous:    
Reply to topic

The time now is: Today 20:34

All times are GMT + 3 Hours



You cannot post new topics in this forum
You cannot reply to topics in this forum
You cannot edit your posts in this forum
You cannot delete your posts in this forum
You cannot vote in polls in this forum
You cannot attach files in this forum
You cannot download files in this forum