Today is a free download without charge Download

Яга. Кошмар тёмного леса (Святослав Подгаевский) [2020, Ужасы, BDRip 1080p] [GER Transfer] (Лицензия) + Sub (Rus)

Reply to topic
 
Author
Message

Kon912 ®

Gender:

Longevity: 1 year 6 months

Posts: 294

Location: Питер

Торрент-статистика

Post 13-Jun-2020 00:29

[Quote]

Яга. Кошмар тёмного леса- Год выпуска: 2020
Страна: Россия
Студия: Нон-стоп Продакшн, QS Films
Жанр: Ужасы
Продолжительность: 01:36:45
Перевод: Не требуется | Лицензия Blu-Ray GER-Режиссер:
Святослав Подгаевский-В ролях:
Олег Чугунов, Глаша Голубева, Артём Жигулин, Игорь Хрипунов, Светлана Устинова, Алексей Розин, Марьяна Спивак, Марта Тимофеева, Даниил Филиппов, Евгения Евстигнеева, Ольга Макеева-О фильме:
В центре сюжета — молодая семья, которая переехала в новую квартиру на окраине города. Нанятая ими для новорожденной дочери няня быстро вошла в доверие. Однако старший мальчик, Егор, рассказывает о пугающем поведении женщины, но родители ему не верят. Камеры наблюдения, установленные отцом для успокоения, лишь подтверждают — всё в порядке. И вот однажды Егор, вернувшись домой, не находит никаких следов ни няни, ни маленькой сестры, а родители пребывают в странном трансе и даже не помнят, что у них была дочь. Тогда Егор вместе с друзьями отправляется на поиски, в ходе которых выяснится, что няня — древний славянский демон.- -Качество: BDRip 1080p
Формат: MKV
Видео: MPEG-4 AVC, 1920x804 (2.40:1), 24.000 fps, 13.1 Mb/s
Аудио 1: 48 kHz, AC3, 5.1, 640 Kbps | Лицензия | RUS |
Аудио 2: 48 kHz, DTS, 5.1, 1509 Kbps | Лицензия | RUS |
Субтитры: Русские (Наталья Раевская)-

ОтчетМедиаИнфо

General
Unique ID : 195792956333697231612216758247874964673 (0x934C5A0C4F0BE02B96E9B09E8D292CC1)
Complete name : E:Video1114kBaba.Yaga.2020.BDRip.1080p.ExKinoRay.mkv
Format : Matroska
Format version : Version 2
File size : 10.5 GiB
Duration : 1 h 36 min
Overall bit rate : 15.6 Mb/s
Movie name : Baba Yaga 2020 from ExKinoRay
Encoded date : UTC 2020-06-12 20:54:29
Writing application : mkvmerge v2.9.9 ('Tutu') built on Nov 25 2009 21:13:32
Writing library : libebml v0.7.9 + libmatroska v0.8.1
Cover : Yes
Attachments : cover.jpg
Video
ID : 1
Format : AVC
Format/Info : Advanced Video Codec
Format profile : High@L4.1
Format settings : CABAC / 5 Ref Frames
Format settings, CABAC : Yes
Format settings, Reference : 5 frames
Codec ID : V_MPEG4/ISO/AVC
Duration : 1 h 36 min
Bit rate : 13.1 Mb/s
Width : 1 920 pixels
Height : 804 pixels
Display aspect ratio : 2.40:1
Frame rate mode : Constant
Frame rate : 24.000 FPS
Color space : YUV
Chroma subsampling : 4:2:0
Bit depth : 8 bits
Scan type : Progressive
Bits/(Pixel*Frame) : 0.355
Stream size : 8.88 GiB (84%)
Writing library : x264 core 142 r2431+42 c69a006 tMod [8-bit@all X86_64]
Encoding settings : cabac=1 / ref=5 / deblock=1:-3:-3 / analyse=0x3:0x133 / me=umh / subme=10 / psy=1 / fade_compensate=0.00 / psy_rd=1.00:0.00 / mixed_ref=1 / me_range=32 / chroma_me=1 / trellis=2 / 8x8dct=1 / cqm=0 / deadzone=21,11 / fast_pskip=0 / chroma_qp_offset=-2 / threads=24 / lookahead_threads=4 / sliced_threads=0 / nr=0 / decimate=0 / interlaced=0 / bluray_compat=0 / constrained_intra=0 / fgo=0 / bframes=8 / b_pyramid=2 / b_adapt=2 / b_bias=0 / direct=3 / weightb=1 / open_gop=0 / weightp=2 / keyint=240 / keyint_min=24 / scenecut=40 / intra_refresh=0 / rc_lookahead=50 / rc=crf / mbtree=0 / crf=17.0000 / qcomp=0.60 / qpmin=0:0:0 / qpmax=51:51:51 / qpstep=4 / vbv_maxrate=50000 / vbv_bufsize=62500 / crf_max=0.0 / nal_hrd=none / filler=0 / ip_ratio=1.40 / pb_ratio=1.30 / aq=3:0.80 / aq-sensitivity=10.00 / aq-factor=1.00:1.00:1.00 / aq2=0 / aq3=0
Language : German
Default : No
Forced : No
Duration_Source : General_Duration
Audio #1
ID : 2
Format : AC-3
Format/Info : Audio Coding 3
Commercial name : Dolby Digital
Codec ID : A_AC3
Duration : 1 h 36 min
Bit rate mode : Constant
Bit rate : 640 kb/s
Channel(s) : 6 channels
Channel layout : L R C LFE Ls Rs
Sampling rate : 48.0 kHz
Frame rate : 31.250 FPS (1536 SPF)
Compression mode : Lossy
Stream size : 443 MiB (4%)
Title : Surround 5.1
Language : Russian
Service kind : Complete Main
Default : Yes
Forced : No
Duration_Source : General_Duration
Audio #2
ID : 3
Format : DTS
Format/Info : Digital Theater Systems
Codec ID : A_DTS
Duration : 1 h 36 min
Bit rate mode : Constant
Bit rate : 1 509 kb/s
Channel(s) : 6 channels
Channel layout : C L R Ls Rs LFE
Sampling rate : 48.0 kHz
Frame rate : 93.750 FPS (512 SPF)
Bit depth : 24 bits
Compression mode : Lossy
Delay relative to video : 11 ms
Stream size : 1.02 GiB (10%)
Title : Surround 5.1
Language : Russian
Default : No
Forced : No
Duration_Source : General_Duration
Text
ID : 4
Format : UTF-8
Codec ID : S_TEXT/UTF8
Codec ID/Info : UTF-8 Plain Text
Title : Full (Enigma)
Language : Russian
Default : No
Forced : No
Menu
00:00:00.000 : en:Chapter 01
00:06:43.500 : en:Chapter 02
00:14:42.750 : en:Chapter 03
00:21:46.750 : en:Chapter 04
00:28:55.666 : en:Chapter 05
00:37:46.375 : en:Chapter 06
00:44:01.750 : en:Chapter 07
00:48:57.000 : en:Chapter 08
00:54:26.708 : en:Chapter 09
01:01:38.875 : en:Chapter 10
01:08:03.666 : en:Chapter 11
01:11:43.416 : en:Chapter 12
01:16:19.375 : en:Chapter 13
01:23:23.250 : en:Chapter 14
01:27:32.625 : en:Chapter 15
01:32:50.833 : en:Chapter 16

Скриншоты

       
-Релиз от
Other forum [Profile] [PM]
Display posts from previous:    
Reply to topic

The time now is: Today 23:46

All times are GMT + 3 Hours



You cannot post new topics in this forum
You cannot reply to topics in this forum
You cannot edit your posts in this forum
You cannot delete your posts in this forum
You cannot vote in polls in this forum
You cannot attach files in this forum
You cannot download files in this forum