Today is a free download without charge Download

Blacktree - The Beginning Of Summer - The Beginning Of The Party (2016) [FLAC|Lossless|image + .cue] <Minimal Techno, Tech House>

Reply to topic
 
Author
Message

RazBoyNik ®

Gender:

Longevity: 8 years 1 month

Posts: 468

Торрент-статистика

Post 16-Feb-2020 21:04

[Quote]

Blacktree - The Beginning Of Summer - The Beginning Of The Party (2016) - Год: 2016
Жанр: Minimal Techno, Tech House
Продолжительность: 01:12:23
Кодек: FLAC
Битрейт: Lossless
Тип рипа: image + .cue
Треклист:
01. Mal, Min - Violin (07:21)
02. Jose Ponce, Joe Red - Legato (03:39)
03. Beth Lydi - Quando (03:40)
04. Cristian Valencia & Ricar - Kryptonite (Mateo Remix) (06:48)
05. Animal Trainer - The Walk (06:27)
06. Khainz - On Sundays I Never Sleep (04:58)
07. Khainz - Modern Walking (04:23)
08. Adam Beyer - Spaceman (07:18)
09. Khainz, Jill Bellac - Roll it (04:31)
10. Khainz - East (03:45)
11. Joe Red - Lost North (04:11)
12. GotSome - Just a feeling (Sonny Fodera Remix) (04:25)
13. SUPERHERO feat. C Layne - It's Not For You (The Mekanism Remix) (04:27)
14. Justus Kohncke - Loop (06:30)

Cue Sheet (.cue&#41;&#58;

Код:
REM GENRE "Minimal Techno, Tech House"
REM DATE 2016
REM COMMENT "First day of the summer! Go towards dancing from morning till morning!"
PERFORMER "Justin Gain (ex. Blacktree)"
TITLE "Blacktree - The Beginning Of Summer - The Beginning Of The Party"
FILE "Blacktree - The beginning of summer - the beginning of the party (01.06.2016).flac" WAVE
  TRACK 01 AUDIO
    PERFORMER "Mal, Min"
    TITLE "Violin"
    INDEX 01 00:00:00
  TRACK 02 AUDIO
    PERFORMER "Jose Ponce, Joe Red"
    TITLE "Legato"
    INDEX 01 07:21:31
  TRACK 03 AUDIO
    PERFORMER "Beth Lydi"
    TITLE "Quando"
    INDEX 01 11:00:01
  TRACK 04 AUDIO
    PERFORMER "Cristian Valencia & Ricar"
    TITLE "Kryptonite (Mateo Remix)"
    INDEX 01 14:40:37
  TRACK 05 AUDIO
    PERFORMER "Animal Trainer"
    TITLE "The Walk"
    INDEX 01 21:32:86
  TRACK 06 AUDIO
    PERFORMER "Khainz"
    TITLE "On Sundays I Never Sleep"
    INDEX 01 28:00:77
  TRACK 07 AUDIO
    PERFORMER "Khainz"
    TITLE "Modern Walking"
    INDEX 01 32:53:20
  TRACK 08 AUDIO
    PERFORMER "Adam Beyer"
    TITLE "Spaceman"
    INDEX 01 37:16:35
  TRACK 09 AUDIO
    PERFORMER "Khainz, Jill Bellac"
    TITLE "Roll it"
    INDEX 01 45:04:29
  TRACK 10 AUDIO
    PERFORMER "Khainz"
    TITLE "East"
    INDEX 01 49:35:82
  TRACK 11 AUDIO
    PERFORMER "Joe Red"
    TITLE "Lost North"
    INDEX 01 53:03:36
  TRACK 12 AUDIO
    PERFORMER "GotSome"
    TITLE "Just a feeling (Sonny Fodera Remix)"
    INDEX 01 57:01:09
  TRACK 13 AUDIO
    PERFORMER "SUPERHERO feat. C Layne"
    TITLE "It's Not For You (The Mekanism Remix)"
    INDEX 01 61:25:87
  TRACK 14 AUDIO
    PERFORMER "Justus Kohncke"
    TITLE "Loop"
    INDEX 01 65:53:27

Отчёт auCDtect Task manager&#58;

Код:
-----------------------
DON'T MODIFY THIS FILE
-----------------------
PERFORMER: auCDtect Task Manager, ver. 1.6.0 RC1 build 1.6.0.1
Copyright (c) 2008-2010 y-soft. All rights reserved
http://y-soft.org
ANALYZER: auCDtect: CD records authenticity detector, version 0.8.2
Copyright (c) 2004 Oleg Berngardt. All rights reserved.
Copyright (c) 2004 Alexander Djourik. All rights reserved.
FILE: The beginning of summer - the beginning of the party (01.06.2016).flac
  Size: 459331158 Hash: 8EC2F50E3FDE2D5D7A16F58A0FA6B586 Accuracy: -m0
  Conclusion: CDDA 100%
  Signature: D7CA41947B0A236B1E980D93B1B9FC43E0589808

Спектрограмма&#58;

 
Other forum [Profile] [PM]
Display posts from previous:    
Reply to topic

The time now is: Today 23:30

All times are GMT + 3 Hours



You cannot post new topics in this forum
You cannot reply to topics in this forum
You cannot edit your posts in this forum
You cannot delete your posts in this forum
You cannot vote in polls in this forum
You cannot attach files in this forum
You cannot download files in this forum