Today is a free download without charge Download

Давай разведемся! (Анна Пармас) [2019, Комедия, WEBRip, 1080p-LQ]

Reply to topic
 
Author
Message

mayor ®

Gender:

Longevity: 7 months 8 days

Posts: 206

Location: РФ

Торрент-статистика

Post 11-Jan-2020 08:42

[Quote]

- Давай разведемся! «Перезагрузка личной жизни»- Производство: Россия / Кинокомпания CTB
Жанр: Комедия
Режиссер: Анна Пармас
Актеры: Анна Михалкова, Антон Филипенко, Светлана Камынина, Максим Лагашкин, Фёдор Лавров, Анна Рыцарева, Надежда Маркина, Сергей Рост, Дарья Румянцева, Майя Скородумова
Описание:
Успешный врач Маша поглощена работой и не сразу замечает, что от нее уходит муж. Жизнь переворачивается вверх дном: на работе аврал, дети требуют постоянного внимания, а привыкшая побеждать Маша не готова уступить любимого мужа красотке фитнес-тренеру. Маша призывает на помощь полный боевой арсенал, включая потусторонние силы. Но новая жизнь открывает новые возможности…

Возраст: 16+ (зрителям, достигшим 16 лет)
Дата мировой премьеры: 23 ноября 2019
Дата российской премьеры: 21 ноября 2019
Релиз от: Sisendrovich
Продолжительность: 01:32:19
Качество видео: WEBRip http://sendfile.su/1540570
Перевод: Не требуется (русский)
Субтитры: Отсутствуют
Видео: AVC/H.264, 1920x804, ~5000 kbps
Аудио: AC3, 2 ch, 192 kbps - Русский

Доп.Информация:

General
Unique ID : 215935752487935485338702873860150989826 (0xA273B692D5DD71CAAFABF0F56A5D1402)
Complete name : DavajRazvedemsyaWebRip1080p.mkv
Format : Matroska
Format version : Version 4
File size : 3.34 GiB
Duration : 1 h 32 min
Overall bit rate : 5 174 kb/s
Encoded date : UTC 2020-01-10 19:24:27
Writing application : mkvmerge v9.5.0 ('Quiet Fire') 64bit
Writing library : libebml v1.3.4 + libmatroska v1.4.5
Video
ID : 1
Format : AVC
Format/Info : Advanced Video Codec
Format profile : High@L4
Format settings : CABAC / 5 Ref Frames
Format settings, CABAC : Yes
Format settings, Reference : 5 frames
Codec ID : V_MPEG4/ISO/AVC
Duration : 1 h 32 min
Bit rate : 5 000 kb/s
Width : 1 920 pixels
Height : 804 pixels
Display aspect ratio : 2.40:1
Frame rate mode : Constant
Frame rate : 25.000 FPS
Color space : YUV
Chroma subsampling : 4:2:0
Bit depth : 8 bits
Scan type : Progressive
Bits/(Pixel*Frame) : 0.130
Stream size : 3.21 GiB (96%)
Writing library : x264 core 148 r2721 72d53ab
Encoding settings : cabac=1 / ref=5 / deblock=1:0:0 / analyse=0x3:0x133 / me=umh / subme=10 / psy=1 / psy_rd=1.00:0.00 / mixed_ref=1 / me_range=24 / chroma_me=1 / trellis=2 / 8x8dct=1 / cqm=0 / deadzone=21,11 / fast_pskip=1 / chroma_qp_offset=-2 / threads=25 / lookahead_threads=4 / sliced_threads=0 / nr=0 / decimate=1 / interlaced=0 / bluray_compat=0 / constrained_intra=0 / bframes=8 / b_pyramid=2 / b_adapt=2 / b_bias=0 / direct=3 / weightb=1 / open_gop=0 / weightp=2 / keyint=100 / keyint_min=50 / scenecut=40 / intra_refresh=0 / rc_lookahead=60 / rc=2pass / mbtree=1 / bitrate=5000 / ratetol=1.0 / qcomp=0.60 / qpmin=0 / qpmax=69 / qpstep=4 / cplxblur=20.0 / qblur=0.5 / vbv_maxrate=5500 / vbv_bufsize=2500 / nal_hrd=none / filler=0 / ip_ratio=1.40 / aq=1:1.00
Language : Russian
Default : Yes
Forced : No
Audio
ID : 2
Format : AC-3
Format/Info : Audio Coding 3
Commercial name : Dolby Digital
Codec ID : A_AC3
Duration : 1 h 32 min
Bit rate mode : Constant
Bit rate : 192 kb/s
Channel(s) : 2 channels
Channel layout : L R
Sampling rate : 48.0 kHz
Frame rate : 31.250 FPS (1536 SPF)
Compression mode : Lossy
Stream size : 127 MiB (4%)
Language : Russian
Service kind : Complete Main
Default : Yes
Forced : No
Скриншоты:
       

Скриншоты:

       
       

_________________
Other forum [Profile] [PM]
Display posts from previous:    
Reply to topic

The time now is: Today 19:44

All times are GMT + 3 Hours



You cannot post new topics in this forum
You cannot reply to topics in this forum
You cannot edit your posts in this forum
You cannot delete your posts in this forum
You cannot vote in polls in this forum
You cannot attach files in this forum
You cannot download files in this forum