Today is a free download without charge Download

VA - ОДНАЖДЫ В ЛАТВИИ Песни А.Мирского и С.Немцова (1997) [FLAC|Lossless|image + .cue] <Pop, Vocal, Pop-Rock>

Reply to topic
 
Author
Message

Soldat_5 ®

Longevity: 1 year 10 months

Posts: 149

Торрент-статистика

Post 18-Dec-2019 14:14

[Quote]

VA - ОДНАЖДЫ В ЛАТВИИ Песни А.Мирского и С.Немцова (1997) - Жанр: Pop, Vocal, Pop-Rock
Издание: T.V.H., Radio SWH+ - not
Источник:(Релизёр:) stas64
Продолжительность: 00:55:52
Кодек: FLAC
Битрейт: Lossless
Тип рипа: image + .cue
Треклист:
01. Александр Мирский - Серый мой город (03:34)
02. Евгений Шур - Миражи (03:52)
03. Сергей Немцов и Евгений Святов - Музыка льётся (03:58)
04. Юрий Слосман - В том городе (04:18)
05. Александр Мирский - Миллионы лет (05:39)
06. Евгений Шур - Руку мою возьми (05:20)
07. Сергей Немцов и Евгений Святов - Этот сон (03:38)
08. Марина Войтюк - Облака (03:42)
09. Евгений Шур - Только ты (04:22)
10. Яков Кульнев - Трамвай (03:18)
11. Евгений Шур - Скоро я увижу тебя (03:25)
12. Александр Мирский - Не верь звезде (05:31)
13. Яна Кей - Follow me to the sky (03:26)
14. Андрей Мельников - Сюрприз от Parex (01:45)

Отчёт EAC&#58;

Exact Audio Copy V1.3 from 2. September 2016
Отчёт EAC об извлечении, выполненном 18. декабря 2019, 7:51
VA / Однажды в Латвии - Песни А.Мирского и С.Немцова
Дисковод: PLEXTOR DVDR PX-712A Adapter: 1 ID: 4
Режим чтения : Достоверность
Использование точного потока : Да
Отключение кэша аудио : Да
Использование указателей C2 : Нет
Коррекция смещения при чтении : 30
Способность читать области Lead-in и Lead-out : Нет
Заполнение пропущенных сэмплов тишиной : Да
Удаление блоков с тишиной в начале и конце : Нет
При вычислениях CRC использовались нулевые сэмплы : Да
Интерфейс : Установленный внешний ASPI-интерфейс
Выходной формат : Пользовательский кодировщик
Выбранный битрейт : 128 kBit/s
Качество : Высокий
Добавление ID3-тега : Нет
Утилита сжатия : C:\Program Files\Exact Audio Copy\FLAC\FLAC.EXE
Дополнительные параметры : -V -8 -T "Genre=%genre%" -T "Artist=%artist%" -T "Title=%title%" -T "Album=%albumtitle%" -T "Date=%year%" -T "Tracknumber=%tracknr%" -T "Comment=%comment%" %source%
TOC извлечённого CD
Трек | Старт | Длительность | Начальный сектор | Конечный сектор
---------------------------------------------------------------------
1 | 0:00.00 | 3:34.40 | 0 | 16089
2 | 3:34.40 | 3:52.10 | 16090 | 33499
3 | 7:26.50 | 3:58.35 | 33500 | 51384
4 | 11:25.10 | 4:18.07 | 51385 | 70741
5 | 15:43.17 | 5:39.40 | 70742 | 96206
6 | 21:22.57 | 5:20.20 | 96207 | 120226
7 | 26:43.02 | 3:38.58 | 120227 | 136634
8 | 30:21.60 | 3:42.37 | 136635 | 153321
9 | 34:04.22 | 4:22.40 | 153322 | 173011
10 | 38:26.62 | 3:18.13 | 173012 | 187874
11 | 41:45.00 | 3:25.00 | 187875 | 203249
12 | 45:10.00 | 5:31.55 | 203250 | 228129
13 | 50:41.55 | 3:26.00 | 228130 | 243579
14 | 54:07.55 | 1:45.02 | 243580 | 251456
Характеристики диапазона извлечения и сообщения об ошибках
Выбранный диапазон
Имя файла I:\MOI_RAZDACI\VA - Однажды в Латвии - Песни А.Мирского и С.Немцова (1997)\VA - Однажды в Латвии - Песни А.Мирского и С.Немцова.wav
Пиковый уровень 98.5 %
Скорость извлечения 10.2 X
Качество диапазона 100.0 %
CRC теста 64B50A28
CRC копии 64B50A28
Копирование... OK
Ошибок не произошло
AccurateRip: сводка
Трек 1 отсутствует в базе данных
Трек 2 отсутствует в базе данных
Трек 3 отсутствует в базе данных
Трек 4 отсутствует в базе данных
Трек 5 отсутствует в базе данных
Трек 6 отсутствует в базе данных
Трек 7 отсутствует в базе данных
Трек 8 отсутствует в базе данных
Трек 9 отсутствует в базе данных
Трек 10 отсутствует в базе данных
Трек 11 отсутствует в базе данных
Трек 12 отсутствует в базе данных
Трек 13 отсутствует в базе данных
Трек 14 отсутствует в базе данных
Ни одного трека нет в базе AccurateRip
Конец отчёта
---- CUETools DB Plugin V2.1.6
[CTDB TOCID: 6wyBUZDw0Mp3FttdPkP3I6j13_4-] disk not present in database
Submit result: 6wyBUZDw0Mp3FttdPkP3I6j13_4- has been uploaded
==== Контрольная сумма отчёта 9B058C67E13F778EAE836355E4C3895C70511062E560AEC438598C0E2003D252 ====
Other forum [Profile] [PM]
Display posts from previous:    
Reply to topic

The time now is: Today 03:37

All times are GMT + 3 Hours



You cannot post new topics in this forum
You cannot reply to topics in this forum
You cannot edit your posts in this forum
You cannot delete your posts in this forum
You cannot vote in polls in this forum
You cannot attach files in this forum
You cannot download files in this forum