Today is a free download without charge Download

Bill Evans - 25 Evans (2005) 2CD, Universal [FLAC|Lossless|tracks + .cue] <Cool, Piano Jazz>

Reply to topic
 
Author
Message

Soldat_5 ®

Longevity: 1 year 2 months

Posts: 169

Торрент-статистика

Post 17-Dec-2019 21:08

[Quote]

Bill Evans - 25 Evans (2005) 2CD, Universal - Жанр: Cool, Piano Jazz
Издание: Verve / Universal - UCCV-4122~3
Продолжительность: 02:11:52
Кодек: FLAC (tracks+.cue)
Битрейт: Lossless
Источник (релизер): catfish27
Страна-производитель диска: Japan
Наличие сканов в содержимом раздачи: нет
Треклист:
CD1:
01. Danny Boy [3:45]
02. Blue Monk [4:34]
03. Spartacus Love Theme [5:11]
04. Santa Claus Is Coming to Town [4:27]
05. Little Lulu [3:53]
06. Grandfather's Waltz (with Stan Getz) [6:31]
07. 'Round Midnight [6:08]
08. Monicas Vals (with Monica Zetterlund) [2:49]

♦ CD1

Трeклист:

01. Danny Boy [3:45]
02. Blue Monk [4:34]
03. Spartacus Love Theme [5:11]
04. Santa Claus Is Coming to Town [4:27]
05. Little Lulu [3:53]
06. Grandfather's Waltz (with Stan Getz) [6:31]
07. 'Round Midnight [6:08]
08. Monicas Vals (with Monica Zetterlund) [2:49]
09. Israel [4:49]
10. How My Heart Sings [2:50]
11. Valse (Siciliano in G minor) [5:51]
12. My Foolish Heart [4:50]
13. Jazz Samba [3:11]
14. My Man's Gone Now [6:45]
Продолжительность:
01:05:35

Лог создания рипа

X Lossless Decoder version 20191004 (152.0)
XLD extraction logfile from 2019-12-01 14:16:08 -0800
Bill Evans / 25 Evans (Disc 1)
Used drive : HL-DT-ST DVDRAM GP65NB60 (revision PF00)
Media type : Pressed CD
Ripper mode : XLD Secure Ripper
Disable audio cache : OK for the drive with a cache less than 1375KiB
Make use of C2 pointers : NO
Read offset correction : 6
Max retry count : 100
Gap status : Analyzed, Appended (except HTOA)
TOC of the extracted CD
Track | Start | Length | Start sector | End sector
---------------------------------------------------------
1 | 00:00:00 | 03:45:30 | 0 | 16904
2 | 03:45:30 | 04:34:37 | 16905 | 37491
3 | 08:19:67 | 05:11:10 | 37492 | 60826
4 | 13:31:02 | 04:26:58 | 60827 | 80834
5 | 17:57:60 | 03:53:32 | 80835 | 98341
6 | 21:51:17 | 06:31:13 | 98342 | 127679
7 | 28:22:30 | 06:07:52 | 127680 | 155256
8 | 34:30:07 | 02:49:23 | 155257 | 167954
9 | 37:19:30 | 04:49:27 | 167955 | 189656
10 | 42:08:57 | 02:50:18 | 189657 | 202424
11 | 44:59:00 | 05:50:40 | 202425 | 228714
12 | 50:49:40 | 04:49:50 | 228715 | 250439
13 | 55:39:15 | 03:10:47 | 250440 | 264736
14 | 58:49:62 | 06:45:30 | 264737 | 295141
List of alternate offset correction values
# | Absolute | Relative | Confidence
------------------------------------------
1 | -288 | -294 | 4
AccurateRip Summary (DiscID: 00213599-016359a2-8c0f5f0e)
Track 01 : OK (v2, confidence 3/7)
Track 02 : OK (v2, confidence 3/7)
Track 03 : OK (v2, confidence 3/7)
Track 04 : OK (v2, confidence 3/7)
Track 05 : OK (v2, confidence 3/7)
Track 06 : OK (v2, confidence 3/7)
Track 07 : OK (v2, confidence 3/7)
Track 08 : OK (v2, confidence 3/7)
Track 09 : OK (v2, confidence 3/7)
Track 10 : OK (v2, confidence 3/7)
Track 11 : OK (v2, confidence 3/7)
Track 12 : OK (v2, confidence 3/7)
Track 13 : OK (v2, confidence 3/7)
Track 14 : OK (v2, confidence 3/7)
->All tracks accurately ripped.
All Tracks
Album gain : 2.24 dB
Peak : 0.954956
Statistics
Read error : 0
Jitter error (maybe fixed) : 0
Retry sector count : 1
Damaged sector count : 0
Track 01
Filename : /Volumes/Hollywood and Vine/Rips/Bill Evans - 25 Evans (Disc 1) (2005) [FLAC]/01 Danny Boy.flac
Pre-gap length : 00:02:00
Track gain : 4.56 dB
Peak : 0.757294
CRC32 hash (test run) : 27DF6C6A
CRC32 hash : 27DF6C6A
CRC32 hash (skip zero) : DAF9BF22
AccurateRip v1 signature : CAD8B8FF
AccurateRip v2 signature : 11CAF855
->Accurately ripped (v2, confidence 3/7)
Statistics
Read error : 0
Jitter error (maybe fixed) : 0
Retry sector count : 0
Damaged sector count : 0
Track 02
Filename : /Volumes/Hollywood and Vine/Rips/Bill Evans - 25 Evans (Disc 1) (2005) [FLAC]/02 Blue Monk.flac
Pre-gap length : 00:02:40
Track gain : 1.59 dB
Peak : 0.705811
CRC32 hash (test run) : 7F1B30CC
CRC32 hash : 7F1B30CC
CRC32 hash (skip zero) : 03F8543A
AccurateRip v1 signature : 99E40324
AccurateRip v2 signature : 2F00623C
->Accurately ripped (v2, confidence 3/7)
Statistics
Read error : 0
Jitter error (maybe fixed) : 0
Retry sector count : 0
Damaged sector count : 0
Track 03
Filename : /Volumes/Hollywood and Vine/Rips/Bill Evans - 25 Evans (Disc 1) (2005) [FLAC]/03 Spartacus Love Theme.flac
Pre-gap length : 00:02:02
Track gain : 1.43 dB
Peak : 0.682861
CRC32 hash (test run) : B21771ED
CRC32 hash : B21771ED
CRC32 hash (skip zero) : 827E77EA
AccurateRip v1 signature : EA46725A
AccurateRip v2 signature : 632F7CFA
->Accurately ripped (v2, confidence 3/7)
Statistics
Read error : 0
Jitter error (maybe fixed) : 0
Retry sector count : 0
Damaged sector count : 0
Track 04
Filename : /Volumes/Hollywood and Vine/Rips/Bill Evans - 25 Evans (Disc 1) (2005) [FLAC]/04 Santa Claus Is Coming to Town.flac
Pre-gap length : 00:02:37
Track gain : 3.63 dB
Peak : 0.933868
CRC32 hash (test run) : 76E3B806
CRC32 hash : 76E3B806
CRC32 hash (skip zero) : 779D1B2E
AccurateRip v1 signature : D28EEBA1
AccurateRip v2 signature : A9FB4A13
->Accurately ripped (v2, confidence 3/7)
Statistics
Read error : 0
Jitter error (maybe fixed) : 0
Retry sector count : 0
Damaged sector count : 0
Track 05
Filename : /Volumes/Hollywood and Vine/Rips/Bill Evans - 25 Evans (Disc 1) (2005) [FLAC]/05 Little Lulu.flac
Pre-gap length : 00:02:05
Track gain : 3.89 dB
Peak : 0.586426
CRC32 hash (test run) : 89C49D3D
CRC32 hash : 89C49D3D
CRC32 hash (skip zero) : D7F0BEC9
AccurateRip v1 signature : 53908D7D
AccurateRip v2 signature : F1B2AF81
->Accurately ripped (v2, confidence 3/7)
Statistics
Read error : 0
Jitter error (maybe fixed) : 0
Retry sector count : 0
Damaged sector count : 0
Track 06
Filename : /Volumes/Hollywood and Vine/Rips/Bill Evans - 25 Evans (Disc 1) (2005) [FLAC]/06 Grandfather's Waltz.flac
Pre-gap length : 00:02:15
Track gain : 2.68 dB
Peak : 0.552094
CRC32 hash (test run) : 02CF5189
CRC32 hash : 02CF5189
CRC32 hash (skip zero) : 5651D133
AccurateRip v1 signature : ACCCD2A3
AccurateRip v2 signature : E894126B
->Accurately ripped (v2, confidence 3/7)
Statistics
Read error : 0
Jitter error (maybe fixed) : 0
Retry sector count : 0
Damaged sector count : 0
Track 07
Filename : /Volumes/Hollywood and Vine/Rips/Bill Evans - 25 Evans (Disc 1) (2005) [FLAC]/07 'Round Midnight.flac
Pre-gap length : 00:01:65
Track gain : 8.31 dB
Peak : 0.591766
CRC32 hash (test run) : 67E78A29
CRC32 hash : 67E78A29
CRC32 hash (skip zero) : 53F8A295
AccurateRip v1 signature : 9803E211
AccurateRip v2 signature : A7767337
->Accurately ripped (v2, confidence 3/7)
Statistics
Read error : 0
Jitter error (maybe fixed) : 0
Retry sector count : 0
Damaged sector count : 0
Track 08
Filename : /Volumes/Hollywood and Vine/Rips/Bill Evans - 25 Evans (Disc 1) (2005) [FLAC]/08 Monicas Vals.flac
Pre-gap length : 00:01:37
Track gain : 1.54 dB
Peak : 0.740173
CRC32 hash (test run) : F795EAE4
CRC32 hash : F795EAE4
CRC32 hash (skip zero) : 5EC6B0DF
AccurateRip v1 signature : 60EE243D
AccurateRip v2 signature : DED1A1C2
->Accurately ripped (v2, confidence 3/7)
Statistics
Read error : 0
Jitter error (maybe fixed) : 0
Retry sector count : 0
Damaged sector count : 0
Track 09
Filename : /Volumes/Hollywood and Vine/Rips/Bill Evans - 25 Evans (Disc 1) (2005) [FLAC]/09 Israel.flac
Pre-gap length : 00:02:40
Track gain : 0.35 dB
Peak : 0.890015
CRC32 hash (test run) : 2B067F51
CRC32 hash : 2B067F51
CRC32 hash (skip zero) : 3F2F11C7
AccurateRip v1 signature : 620C1B76
AccurateRip v2 signature : AF2DC7AA
->Accurately ripped (v2, confidence 3/7)
Statistics
Read error : 0
Jitter error (maybe fixed) : 0
Retry sector count : 0
Damaged sector count : 0
Track 10
Filename : /Volumes/Hollywood and Vine/Rips/Bill Evans - 25 Evans (Disc 1) (2005) [FLAC]/10 How My Heart Sings.flac
Pre-gap length : 00:02:42
Track gain : -0.32 dB
Peak : 0.841522
CRC32 hash (test run) : 228656FA
CRC32 hash : 228656FA
CRC32 hash (skip zero) : 8E1A4422
AccurateRip v1 signature : 0F2F4FBB
AccurateRip v2 signature : 468C8FD1
->Accurately ripped (v2, confidence 3/7)
Statistics
Read error : 0
Jitter error (maybe fixed) : 0
Retry sector count : 0
Damaged sector count : 0
Track 11
Filename : /Volumes/Hollywood and Vine/Rips/Bill Evans - 25 Evans (Disc 1) (2005) [FLAC]/11 Valse (Siciliano in G Minor).flac
Pre-gap length : 00:02:73
Track gain : 1.56 dB
Peak : 0.800964
CRC32 hash (test run) : BA545B88
CRC32 hash : BA545B88
CRC32 hash (skip zero) : C6D64F31
AccurateRip v1 signature : 6DAE87A1
AccurateRip v2 signature : F75B7539
->Accurately ripped (v2, confidence 3/7)
Statistics
Read error : 0
Jitter error (maybe fixed) : 0
Retry sector count : 0
Damaged sector count : 0
Track 12
Filename : /Volumes/Hollywood and Vine/Rips/Bill Evans - 25 Evans (Disc 1) (2005) [FLAC]/12 My Foolish Heart.flac
Pre-gap length : 00:02:00
Track gain : 5.09 dB
Peak : 0.704285
CRC32 hash (test run) : E7B3A309
CRC32 hash : E7B3A309
CRC32 hash (skip zero) : 1E5AD8E6
AccurateRip v1 signature : 4236A61F
AccurateRip v2 signature : 96F8335D
->Accurately ripped (v2, confidence 3/7)
Statistics
Read error : 0
Jitter error (maybe fixed) : 0
Retry sector count : 0
Damaged sector count : 0
Track 13
Filename : /Volumes/Hollywood and Vine/Rips/Bill Evans - 25 Evans (Disc 1) (2005) [FLAC]/13 Jazz Samba.flac
Pre-gap length : 00:02:00
Track gain : 2.57 dB
Peak : 0.528229
CRC32 hash (test run) : AC58D320
CRC32 hash : AC58D320
CRC32 hash (skip zero) : 3051F6FF
AccurateRip v1 signature : 437EF78A
AccurateRip v2 signature : 362393E9
->Accurately ripped (v2, confidence 3/7)
Statistics
Read error : 0
Jitter error (maybe fixed) : 0
Retry sector count : 1
Damaged sector count : 0
Track 14
Filename : /Volumes/Hollywood and Vine/Rips/Bill Evans - 25 Evans (Disc 1) (2005) [FLAC]/14 My Man's Gone Now.flac
Pre-gap length : 00:02:02
Track gain : 1.87 dB
Peak : 0.954956
CRC32 hash (test run) : 4FDCFFA1
CRC32 hash : 4FDCFFA1
CRC32 hash (skip zero) : BFFFEFA3
AccurateRip v1 signature : E29BF6FB
AccurateRip v2 signature : B8EDB586
->Accurately ripped (v2, confidence 3/7)
Statistics
Read error : 0
Jitter error (maybe fixed) : 0
Retry sector count : 0
Damaged sector count : 0
No errors occurred
End of status report
-----BEGIN XLD SIGNATURE-----
BbN1YCnHd.iVWzJfBX1_ujVakEiA6p7MCTkWeIGnIIA9PtVIso1U4qZJi1KfP5iOmtJDjFw58cLqJdtTKmPBzNkVPuOaNDsnvdRmxYS
-----END XLD SIGNATURE-----

♦ CD2

Трeклист:

01. Stella by Starlight [4:12]
02. Only Child [4:04]
03. Yesterdays [3:51]
04. Alfie [5:21]
05. Nardis [8:05]
06. Someday My Prince Will Come [5:38]
07. Here's That Rainy Day [5:23]
08. Never Let Me Go [14:37]
09. Straight No Chaser [5:44]
10. Autumn Leaves [6:17]
11. The Dolphin-Before [3:05]
Продолжительность:
01:06:17

Лог создания рипа

X Lossless Decoder version 20191004 (152.0)
XLD extraction logfile from 2019-12-01 14:42:26 -0800
Bill Evans / 25 Evans (Disc 2)
Used drive : HL-DT-ST DVDRAM GP65NB60 (revision PF00)
Media type : Pressed CD
Ripper mode : XLD Secure Ripper
Disable audio cache : OK for the drive with a cache less than 1375KiB
Make use of C2 pointers : NO
Read offset correction : 6
Max retry count : 100
Gap status : Analyzed, Appended (except HTOA)
TOC of the extracted CD
Track | Start | Length | Start sector | End sector
---------------------------------------------------------
1 | 00:00:00 | 04:11:40 | 0 | 18864
2 | 04:11:40 | 04:04:35 | 18865 | 37199
3 | 08:16:00 | 03:50:67 | 37200 | 54516
4 | 12:06:67 | 05:21:13 | 54517 | 78604
5 | 17:28:05 | 08:04:50 | 78605 | 114954
6 | 25:32:55 | 05:37:67 | 114955 | 140296
7 | 31:10:47 | 05:23:15 | 140297 | 164536
8 | 36:33:62 | 14:37:00 | 164537 | 230311
9 | 51:10:62 | 05:43:63 | 230312 | 256099
10 | 56:54:50 | 06:17:00 | 256100 | 284374
11 | 63:11:50 | 03:05:37 | 284375 | 298286
AccurateRip Summary (DiscID: 00199ae2-00e640f2-980f890b)
Track 01 : OK (v2, confidence 7/7)
Track 02 : OK (v2, confidence 7/7)
Track 03 : OK (v2, confidence 7/7)
Track 04 : OK (v2, confidence 7/7)
Track 05 : OK (v2, confidence 7/7)
Track 06 : OK (v2, confidence 7/7)
Track 07 : OK (v2, confidence 7/7)
Track 08 : OK (v2, confidence 7/7)
Track 09 : OK (v2, confidence 7/7)
Track 10 : OK (v2, confidence 7/7)
Track 11 : OK (v2, confidence 7/7)
->All tracks accurately ripped.
All Tracks
Album gain : 0.27 dB
Peak : 0.953857
Statistics
Read error : 0
Jitter error (maybe fixed) : 0
Retry sector count : 0
Damaged sector count : 0
Track 01
Filename : /Volumes/Hollywood and Vine/Rips/Bill Evans - 25 Evans (Disc 2) (2005) [FLAC]/01 Stella by Starlight.flac
Pre-gap length : 00:02:00
Track gain : 1.52 dB
Peak : 0.819489
CRC32 hash (test run) : 654B6E67
CRC32 hash : 654B6E67
CRC32 hash (skip zero) : 8846B5A4
AccurateRip v1 signature : B3AE09A2
AccurateRip v2 signature : 5A49D15F
->Accurately ripped (v2, confidence 7/7)
Statistics
Read error : 0
Jitter error (maybe fixed) : 0
Retry sector count : 0
Damaged sector count : 0
Track 02
Filename : /Volumes/Hollywood and Vine/Rips/Bill Evans - 25 Evans (Disc 2) (2005) [FLAC]/02 Only Child.flac
Pre-gap length : 00:02:00
Track gain : 4.98 dB
Peak : 0.537964
CRC32 hash (test run) : D192D812
CRC32 hash : D192D812
CRC32 hash (skip zero) : E62786B7
AccurateRip v1 signature : 9F910BBF
AccurateRip v2 signature : 50D7D2BE
->Accurately ripped (v2, confidence 7/7)
Statistics
Read error : 0
Jitter error (maybe fixed) : 0
Retry sector count : 0
Damaged sector count : 0
Track 03
Filename : /Volumes/Hollywood and Vine/Rips/Bill Evans - 25 Evans (Disc 2) (2005) [FLAC]/03 Yesterdays.flac
Pre-gap length : 00:02:10
Track gain : 0.85 dB
Peak : 0.548401
CRC32 hash (test run) : 907DF8E0
CRC32 hash : 907DF8E0
CRC32 hash (skip zero) : A93913AD
AccurateRip v1 signature : AA0C465B
AccurateRip v2 signature : 15990D6D
->Accurately ripped (v2, confidence 7/7)
Statistics
Read error : 0
Jitter error (maybe fixed) : 0
Retry sector count : 0
Damaged sector count : 0
Track 04
Filename : /Volumes/Hollywood and Vine/Rips/Bill Evans - 25 Evans (Disc 2) (2005) [FLAC]/04 Alfie.flac
Pre-gap length : 00:02:40
Track gain : 5.36 dB
Peak : 0.708099
CRC32 hash (test run) : B59AAB14
CRC32 hash : B59AAB14
CRC32 hash (skip zero) : 12FB7005
AccurateRip v1 signature : 1475B6F2
AccurateRip v2 signature : 83FFC13E
->Accurately ripped (v2, confidence 7/7)
Statistics
Read error : 0
Jitter error (maybe fixed) : 0
Retry sector count : 0
Damaged sector count : 0
Track 05
Filename : /Volumes/Hollywood and Vine/Rips/Bill Evans - 25 Evans (Disc 2) (2005) [FLAC]/05 Nardis.flac
Pre-gap length : 00:02:74
Track gain : 5.61 dB
Peak : 0.718018
CRC32 hash (test run) : 63E772EF
CRC32 hash : 63E772EF
CRC32 hash (skip zero) : 3A2A0076
AccurateRip v1 signature : F327BE0E
AccurateRip v2 signature : BF36C6DE
->Accurately ripped (v2, confidence 7/7)
Statistics
Read error : 0
Jitter error (maybe fixed) : 0
Retry sector count : 0
Damaged sector count : 0
Track 06
Filename : /Volumes/Hollywood and Vine/Rips/Bill Evans - 25 Evans (Disc 2) (2005) [FLAC]/06 Someday My Prince Will Come.flac
Pre-gap length : 00:02:05
Track gain : 2.93 dB
Peak : 0.953857
CRC32 hash (test run) : 7D669CEA
CRC32 hash : 7D669CEA
CRC32 hash (skip zero) : 96311291
AccurateRip v1 signature : B2AAC565
AccurateRip v2 signature : D88F5E04
->Accurately ripped (v2, confidence 7/7)
Statistics
Read error : 0
Jitter error (maybe fixed) : 0
Retry sector count : 0
Damaged sector count : 0
Track 07
Filename : /Volumes/Hollywood and Vine/Rips/Bill Evans - 25 Evans (Disc 2) (2005) [FLAC]/07 Here's That Rainy Day.flac
Pre-gap length : 00:01:72
Track gain : -1.21 dB
Peak : 0.822357
CRC32 hash (test run) : 45D232F2
CRC32 hash : 45D232F2
CRC32 hash (skip zero) : DC80D93A
AccurateRip v1 signature : A5524B0E
AccurateRip v2 signature : 186AD655
->Accurately ripped (v2, confidence 7/7)
Statistics
Read error : 0
Jitter error (maybe fixed) : 0
Retry sector count : 0
Damaged sector count : 0
Track 08
Filename : /Volumes/Hollywood and Vine/Rips/Bill Evans - 25 Evans (Disc 2) (2005) [FLAC]/08 Never Let Me Go.flac
Pre-gap length : 00:02:37
Track gain : -1.05 dB
Peak : 0.846100
CRC32 hash (test run) : A9AD10BF
CRC32 hash : A9AD10BF
CRC32 hash (skip zero) : 72CD1503
AccurateRip v1 signature : 22E193AC
AccurateRip v2 signature : 0AF398AB
->Accurately ripped (v2, confidence 7/7)
Statistics
Read error : 0
Jitter error (maybe fixed) : 0
Retry sector count : 0
Damaged sector count : 0
Track 09
Filename : /Volumes/Hollywood and Vine/Rips/Bill Evans - 25 Evans (Disc 2) (2005) [FLAC]/09 Straight No Chaser.flac
Pre-gap length : 00:02:40
Track gain : -0.11 dB
Peak : 0.730164
CRC32 hash (test run) : B8E8DDF2
CRC32 hash : B8E8DDF2
CRC32 hash (skip zero) : A8DCB68F
AccurateRip v1 signature : D1CBD9EE
AccurateRip v2 signature : C7E4604F
->Accurately ripped (v2, confidence 7/7)
Statistics
Read error : 0
Jitter error (maybe fixed) : 0
Retry sector count : 0
Damaged sector count : 0
Track 10
Filename : /Volumes/Hollywood and Vine/Rips/Bill Evans - 25 Evans (Disc 2) (2005) [FLAC]/10 Autumn Leaves.flac
Pre-gap length : 00:02:40
Track gain : -1.11 dB
Peak : 0.723969
CRC32 hash (test run) : 5D651939
CRC32 hash : 5D651939
CRC32 hash (skip zero) : B7B6E78B
AccurateRip v1 signature : 49A28713
AccurateRip v2 signature : D5155206
->Accurately ripped (v2, confidence 7/7)
Statistics
Read error : 0
Jitter error (maybe fixed) : 0
Retry sector count : 0
Damaged sector count : 0
Track 11
Filename : /Volumes/Hollywood and Vine/Rips/Bill Evans - 25 Evans (Disc 2) (2005) [FLAC]/11 The Dolphin-Before.flac
Pre-gap length : 00:02:40
Track gain : -2.48 dB
Peak : 0.849670
CRC32 hash (test run) : D65D2AD5
CRC32 hash : D65D2AD5
CRC32 hash (skip zero) : 45A83F73
AccurateRip v1 signature : 0C5C4AFF
AccurateRip v2 signature : B3BC403C
->Accurately ripped (v2, confidence 7/7)
Statistics
Read error : 0
Jitter error (maybe fixed) : 0
Retry sector count : 0
Damaged sector count : 0
No errors occurred
End of status report
-----BEGIN XLD SIGNATURE-----
02v23GncUwoyseZo8NnefmjWFcwulpYiFVIUNyED6xkVzsFaI4IhZrIfmZfg_YQ5TifgLH4q.xy2le99DEGv2ynzv_Dui3nhQDSGIqC
-----END XLD SIGNATURE-----
Other forum [Profile] [PM]
Display posts from previous:    
Reply to topic

The time now is: Today 03:25

All times are GMT + 3 Hours



You cannot post new topics in this forum
You cannot reply to topics in this forum
You cannot edit your posts in this forum
You cannot delete your posts in this forum
You cannot vote in polls in this forum
You cannot attach files in this forum
You cannot download files in this forum