Today is a free download without charge Download

Katherine Penfold - Sweetest Thing (2019) [FLAC|Lossless|tracks + .cue] <Vocal Jazz>

Reply to topic
 
Author
Message

Soldat_5 ®

Longevity: 6 months 22 days

Posts: 125

Торрент-статистика

Post 11-Dec-2019 11:16

[Quote]

Katherine Penfold - Sweetest Thing (2019) - Жанр: Vocal Jazz
Издание: Justin Time Records - JUST264-2
Источник:[релизёр] fiks22
Продолжительность: 00:40:19
Кодек: FLAC
Битрейт: Lossless
Тип рипа: tracks + .cue
Треклист:
01. Unapologetic (4:39)
02. Feel Like Makin' Love (3:17)
03. Far Away (4:14)
04. Better (3:30)
05. We Gotta Choose (4:24)
06. High (4:34)
07. Sweetest Thing (4:48)
08. Movin' On (3:36)
09. Tell the World (3:20)
10. You Know the Way I Feel (3:57)

Отчёт EAC&#58;

Exact Audio Copy V1.3 from 2. September 2016
EAC extraction logfile from 3. November 2019, 18:13
Katherine Penfold / Sweetest Thing
Used drive : PLEXTOR PX-891SAF Adapter: 1 ID: 0
Read mode : Secure
Utilize accurate stream : Yes
Defeat audio cache : Yes
Make use of C2 pointers : No
Read offset correction : 6
Overread into Lead-In and Lead-Out : No
Fill up missing offset samples with silence : Yes
Delete leading and trailing silent blocks : No
Null samples used in CRC calculations : Yes
Used interface : Native Win32 interface for Win NT & 2000
Gap handling : Appended to previous track
Used output format : User Defined Encoder
Selected bitrate : 1024 kBit/s
Quality : High
Add ID3 tag : No
Command line compressor : C:\Program Files (x86)\Exact Audio Copy\Flac\flac.exe
Additional command line options : -8 -V -T "ARTIST=%artist%" -T "TITLE=%title%" -T "ALBUM=%albumtitle%" -T "DATE=%year%" -T "TRACKNUMBER=%tracknr%" -T "GENRE=%genre%" -T "PERFORMER=%albuminterpret%" -T "COMPOSER=%composer%" %haslyrics%--tag-from-file=LYRICS="%lyricsfile%"%haslyrics% -T "ALBUMARTIST=%albumartist%" -T "DISCNUMBER=%cdnumber%" -T "TOTALDISCS=%totalcds%" -T "TOTALTRACKS=%numtracks%" -T "COMMENT=%comment%" %source% -o %dest%
TOC of the extracted CD
Track | Start | Length | Start sector | End sector
---------------------------------------------------------
1 | 0:00.00 | 4:38.58 | 0 | 20907
2 | 4:38.58 | 3:16.43 | 20908 | 35650
3 | 7:55.26 | 4:14.21 | 35651 | 54721
4 | 12:09.47 | 3:29.38 | 54722 | 70434
5 | 15:39.10 | 4:23.72 | 70435 | 90231
6 | 20:03.07 | 4:34.23 | 90232 | 110804
7 | 24:37.30 | 4:48.02 | 110805 | 132406
8 | 29:25.32 | 3:35.46 | 132407 | 148577
9 | 33:01.03 | 3:20.08 | 148578 | 163585
10 | 36:21.11 | 3:56.40 | 163586 | 181325
Track 1
Filename D:\#cdr\#wav+flac\Katherine Penfold - Sweetest Thing\01. Katherine Penfold - Unapologetic.wav
Pre-gap length 0:00:02.00
Peak level 95.5 %
Extraction speed 5.2 X
Track quality 100.0 %
Test CRC B53FAFA6
Copy CRC B53FAFA6
Track not present in AccurateRip database
Copy OK
Track 2
Filename D:\#cdr\#wav+flac\Katherine Penfold - Sweetest Thing\02. Katherine Penfold - Feel Like Makin' Love.wav
Peak level 94.7 %
Extraction speed 5.4 X
Track quality 100.0 %
Test CRC E8C8B7FC
Copy CRC E8C8B7FC
Track not present in AccurateRip database
Copy OK
Track 3
Filename D:\#cdr\#wav+flac\Katherine Penfold - Sweetest Thing\03. Katherine Penfold - Far Away.wav
Peak level 95.5 %
Extraction speed 5.1 X
Track quality 99.9 %
Test CRC 153F0362
Copy CRC 153F0362
Track not present in AccurateRip database
Copy OK
Track 4
Filename D:\#cdr\#wav+flac\Katherine Penfold - Sweetest Thing\04. Katherine Penfold - Better.wav
Peak level 96.0 %
Extraction speed 5.2 X
Track quality 99.9 %
Test CRC 85D57603
Copy CRC 85D57603
Track not present in AccurateRip database
Copy OK
Track 5
Filename D:\#cdr\#wav+flac\Katherine Penfold - Sweetest Thing\05. Katherine Penfold - We Gotta Choose.wav
Peak level 94.6 %
Extraction speed 6.1 X
Track quality 99.9 %
Test CRC 231612B6
Copy CRC 231612B6
Track not present in AccurateRip database
Copy OK
Track 6
Filename D:\#cdr\#wav+flac\Katherine Penfold - Sweetest Thing\06. Katherine Penfold - High.wav
Peak level 95.5 %
Extraction speed 7.5 X
Track quality 100.0 %
Test CRC F00C84E1
Copy CRC F00C84E1
Track not present in AccurateRip database
Copy OK
Track 7
Filename D:\#cdr\#wav+flac\Katherine Penfold - Sweetest Thing\07. Katherine Penfold - Sweetest Thing.wav
Peak level 95.5 %
Extraction speed 8.0 X
Track quality 100.0 %
Test CRC 0A3BE06F
Copy CRC 0A3BE06F
Track not present in AccurateRip database
Copy OK
Track 8
Filename D:\#cdr\#wav+flac\Katherine Penfold - Sweetest Thing\08. Katherine Penfold - Movin' On.wav
Peak level 94.7 %
Extraction speed 8.0 X
Track quality 100.0 %
Test CRC 7BE59FAF
Copy CRC 7BE59FAF
Track not present in AccurateRip database
Copy OK
Track 9
Filename D:\#cdr\#wav+flac\Katherine Penfold - Sweetest Thing\09. Katherine Penfold - Tell The World.wav
Peak level 94.4 %
Extraction speed 8.2 X
Track quality 100.0 %
Test CRC 497B99FB
Copy CRC 497B99FB
Track not present in AccurateRip database
Copy OK
Track 10
Filename D:\#cdr\#wav+flac\Katherine Penfold - Sweetest Thing\10. Katherine Penfold - You Know The Way I Feel.wav
Peak level 94.5 %
Extraction speed 8.6 X
Track quality 100.0 %
Test CRC 567CFAC7
Copy CRC 567CFAC7
Track not present in AccurateRip database
Copy OK
None of the tracks are present in the AccurateRip database
No errors occurred
End of status report
---- CUETools DB Plugin V2.1.6
[CTDB TOCID: UCR.s6ZrmYZTShilPLa96JE0fC0-] found
Submit result: UCR.s6ZrmYZTShilPLa96JE0fC0- has been confirmed
Track | CTDB Status
1 | (1/1) Accurately ripped
2 | (1/1) Accurately ripped
3 | (1/1) Accurately ripped
4 | (1/1) Accurately ripped
5 | (1/1) Accurately ripped
6 | (1/1) Accurately ripped
7 | (1/1) Accurately ripped
8 | (1/1) Accurately ripped
9 | (1/1) Accurately ripped
10 | (1/1) Accurately ripped
==== Log checksum 43440C2D9A5237104C2C2CF0961BCA80E521CBDA55059D2D56E84F0E11DD8658 ====
Other forum [Profile] [PM]
Display posts from previous:    
Reply to topic

The time now is: Today 06:40

All times are GMT + 3 Hours



You cannot post new topics in this forum
You cannot reply to topics in this forum
You cannot edit your posts in this forum
You cannot delete your posts in this forum
You cannot vote in polls in this forum
You cannot attach files in this forum
You cannot download files in this forum