Today is a free download without charge Download

Michael Damian - Love Is A Mystery (1989) [FLAC|Lossless|image + .cue] <Pop Rock>

Reply to topic
 
Author
Message

Soldat_5 ®

Longevity: 3 months 8 days

Posts: 102

Торрент-статистика

Post 11-Dec-2019 11:10

[Quote]

Michael Damian - Love Is A Mystery (1989) - Жанр: Pop Rock
Издание: Alfa International - 25B2-83
Источник:[релизёр:] s-p-m2009
Продолжительность: 00:37:51
Кодек: FLAC
Битрейт: Lossless
Тип рипа: image + .cue
Треклист:
1 She's In A Different World
2 On Our Time
3 Heart Of Stone
4 Will You Make Up Your Mind
5 Everybody Knows
6 No For An Answer
7 Hard To Find A Girl
8 Letting Go
9 It's Not Easy To Fall In Love
10 Love Is A Mystery

Отчёт EAC&#58;

Exact Audio Copy V1.0 beta 3 from 29. August 2011
Отчёт EAC об извлечении, выполненном 6. декабря 2019, 23:06
Michael Damian / Love Is A Mystery
Дисковод: TSSTcorpCDDVDW SH-224DB Adapter: 1 ID: 0
Режим чтения : Достоверность
Использование точного потока : Да
Отключение кэша аудио : Да
Использование указателей C2 : Нет
Коррекция смещения при чтении : 6
Способность читать области Lead-in и Lead-out : Нет
Заполнение пропущенных сэмплов тишиной : Да
Удаление блоков с тишиной в начале и конце : Нет
При вычислениях CRC использовались нулевые сэмплы : Да
Интерфейс : Встроенный Win32-интерфейс для Win NT/2000
Выходной формат : Пользовательский кодировщик
Выбранный битрейт : 128 kBit/s
Качество : Высокий
Добавление ID3-тега : Нет
Утилита сжатия : C:\Program Files (x86)\FLAC\flac.exe
Дополнительные параметры : -V -8 -T "Date=%year%" -T "Genre=%genre%" %source%
TOC извлечённого CD
Трек | Старт | Длительность | Начальный сектор | Конечный сектор
---------------------------------------------------------------------
1 | 0:00.00 | 3:52.10 | 0 | 17409
2 | 3:52.10 | 3:27.17 | 17410 | 32951
3 | 7:19.27 | 4:22.15 | 32952 | 52616
4 | 11:41.42 | 3:10.23 | 52617 | 66889
5 | 14:51.65 | 4:06.57 | 66890 | 85396
6 | 18:58.47 | 3:35.13 | 85397 | 101534
7 | 22:33.60 | 3:19.70 | 101535 | 116529
8 | 25:53.55 | 3:03.55 | 116530 | 130309
9 | 28:57.35 | 4:42.60 | 130310 | 151519
10 | 33:40.20 | 4:10.50 | 151520 | 170319
Характеристики диапазона извлечения и сообщения об ошибках
Выбранный диапазон
Имя файла C:\EAC\Michael Damian - Love Is A Mystery - 1989 CD (Japan Edit, Alfa International - 25B2-83)\Michael Damian - Love Is A Mystery.wav
Пиковый уровень 100.0 %
Скорость извлечения 6.6 X
Качество диапазона 100.0 %
CRC теста 7523C76A
CRC копии 7523C76A
Копирование... OK
Ошибок не произошло
AccurateRip: сводка
Трек 1 отсутствует в базе данных
Трек 2 отсутствует в базе данных
Трек 3 отсутствует в базе данных
Трек 4 отсутствует в базе данных
Трек 5 отсутствует в базе данных
Трек 6 отсутствует в базе данных
Трек 7 отсутствует в базе данных
Трек 8 отсутствует в базе данных
Трек 9 отсутствует в базе данных
Трек 10 отсутствует в базе данных
Ни одного трека нет в базе AccurateRip
Конец отчёта
==== Контрольная сумма отчёта B39FFF36D21448CF59F15A7EFFE7EBF59ABD59BC4BCD9C98898ABEAD730F9382 ====
-[img=left]http://nnmclub.ch/forum/image.php?link=http://nnmcl..._audio.png[/img]

Поглощение/вытеснение
Только с согласия релизера

Чех
Other forum [Profile] [PM]
Display posts from previous:    
Reply to topic

The time now is: Today 03:56

All times are GMT + 3 Hours



You cannot post new topics in this forum
You cannot reply to topics in this forum
You cannot edit your posts in this forum
You cannot delete your posts in this forum
You cannot vote in polls in this forum
You cannot attach files in this forum
You cannot download files in this forum