Today is a free download without charge Download

Ускорение / Acceleration (2019) WEB-DLRip [MVO] [AD]

Reply to topic
 
Author
Message

Clavik ®

Gender:

Longevity: 6 years 2 months

Posts: 2343

Location: Украина

Торрент-статистика

Post 19-Nov-2019 21:57

[Quote]

Ускорение / Acceleration (2019) WEB-DLRip- Производство: США / 7Heaven Productions, Cinetel Films
Жанр: Боевик
Режиссер: Майкл Мерино, Дэниэл Дзирилли
Актеры: Шон Патрик Флэнери, Дольф Лундгрен, Чак Лиделл, Наталия Берн, Куинтон Джексон, Дэнни Трехо, Ал Сапиенза, Нг Мэйлин, Джейсон Лондон, Салли Кёркленд
Описание:
Владик Зорич преступный гений, чьи щупальца дотянулись до каждого аспекта преступной жизни Лос-Анджелеса, будь то оружие, азартные игры, наркотики или торговля людьми, выясняет, что его пути пересеклись с самой ловкой оперативницей Роной Зёкки. Похитив сына Роны, Владик заставляет Рону устранить своих конкурентов и вернуть важную информацию и всё это в одну ночь.

Рейтинг MPAA: R (лицам до 17 лет обязательно присутствие взрослого)
Дата мировой премьеры: 8 ноября 2019
Продолжительность: 01:24:45
Качество видео: WEB-DLRip
Перевод: Многоголосый закадровый, любительский (MUZOBOZ)
Субтитры: Отсутствуют
Реклама: Присутствует баннер.
Видео: XviD, 720x400, ~11866 Kbps
Аудио: AC-3, 2 ch, 384 Kbps

MediaInfo:

]
Общее
Полное имя : D:\NNM\Ускорение\Acceleration.2019.WEB-DLRip.avi
Формат : AVI
Формат/Информация : Audio Video Interleave
Профиль формата : OpenDML
Размер файла : 1,34 Гбайт
Продолжительность : 1 ч. 24 м.
Общий поток : 2262 Кбит/сек
Видео
Идентификатор : 0
Формат : MPEG-4 Visual
Профиль формата : Advanced Simple@L5
Настройки формата : BVOP2
Параметр BVOP формата : 2
Параметр QPel формата : Нет
Параметр GMC формата : Без точки перехода
Параметр матрицы формата : Default (H.263)
Идентификатор кодека : XVID
Идентификатор кодека/Подсказка : XviD
Продолжительность : 1 ч. 24 м.
Битрейт : 1866 Кбит/сек
Ширина : 720 пикселей
Высота : 400 пикселей
Соотношение сторон : 16:9
Частота кадров : 23,976 (24000/1001) кадра/сек
Цветовое пространство : YUV
Субдискретизация насыщенности : 4:2:0
Битовая глубина : 4 бит
Тип развёртки : Прогрессивная
Метод сжатия : С потерями
Бит/(Пиксели*Кадры) : 0.270
Размер потока : 1,10 Гбайт (82%)
Библиотека кодирования : XviD 1.2.1 (UTC 2008-12-04)
Аудио
Идентификатор : 1
Формат : AC-3
Формат/Информация : Audio Coding 3
Коммерческое название : Dolby Digital
Идентификатор кодека : 2000
Продолжительность : 1 ч. 24 м.
Вид битрейта : Постоянный
Битрейт : 384 Кбит/сек
Каналы : 2 канала
ChannelLayout : L R
Частота : 48,0 КГц
Частота кадров : 31,250 кадров/сек (1536 SPF)
Битовая глубина : 16 бит
Метод сжатия : С потерями
Размер потока : 233 Мбайт (17%)
Выравнивание : Соединение по промежуткам
Продолжительность промежутка : 32 мс. (0,77 видеокадр)
ServiceKind/String : Complete Main
Скриншоты:        

_________________


Other forum [Profile] [PM]
Display posts from previous:    
Reply to topic

The time now is: Today 18:44

All times are GMT + 3 Hours



You cannot post new topics in this forum
You cannot reply to topics in this forum
You cannot edit your posts in this forum
You cannot delete your posts in this forum
You cannot vote in polls in this forum
You cannot attach files in this forum
You cannot download files in this forum