Today is a free download without charge Download

(Classic Rock) Coco Montoya / Gotta Mind To Travel (1994 UK Silvertone 74321 18886 2) - 2019, FLAC (image + .cue), lossless

Reply to topic
 
Author
Message

Soldat_5 ®

Longevity: 2 years

Posts: 152

Торрент-статистика

Post 19-Nov-2019 15:47

[Quote]

Coco Montoya / Gotta Mind To Travel (1994 UK Silvertone 74321 18886 2) Жанр: Modern Electric Blues
Носитель: CD
Страна-производитель диска (релиза): UK
Год издания: 1994
Издатель (лейбл): Silvertone Records
Номер по каталогу: 74321 18886 2
Страна исполнителя (группы): US
Аудиокодек: FLAC (*.flac)
Тип рипа: tracks+.cue
Продолжительность: 00:46:49
Источник: рип с CD из коллекции pazanenok
Наличие сканов в содержимом раздачи: да
Треклист:
01. Too Much Water (4:00)
02. Gotta Mind To Travel (3:51)
03. Talkin' Woman Blues (3:59)
04. Someday After Awhile (5:03)
05. Top Of The Hill (4:31)
06. Same Dog (4:47)
07. Love Jail (3:45)
08. You Don't Love Me (5:11)
09. Nothin' In The Streets (5:01)
10. Am I Losing You (6:41)

Лог создания рипа

Exact Audio Copy V1.1 from 23. June 2015
EAC extraction logfile from 4. May 2019, 11:07
Coco Montoya / Gotta Mind To Travel
Used drive : PIONEER DVD-RW DVR-219L Adapter: 1 ID: 0
Read mode : Secure
Utilize accurate stream : Yes
Defeat audio cache : Yes
Make use of C2 pointers : No
Read offset correction : 6
Overread into Lead-In and Lead-Out : No
Fill up missing offset samples with silence : Yes
Delete leading and trailing silent blocks : No
Null samples used in CRC calculations : Yes
Used interface : Native Win32 interface for Win NT & 2000
Gap handling : Appended to previous track
Used output format : User Defined Encoder
Selected bitrate : 128 kBit/s
Quality : High
Add ID3 tag : No
Command line compressor : C:\Program Files\Exact Audio Copy\Flac\flac.exe
Additional command line options : -V -8 -T "Genre=%genre%" -T "Artist=%artist%" -T "Title=%title%" -T "Album=%albumtitle%" -T "Date=%year%" -T "Tracknumber=%tracknr%" -T "Comment=%comment%" %source%
TOC of the extracted CD
Track | Start | Length | Start sector | End sector
---------------------------------------------------------
1 | 0:00.00 | 4:00.07 | 0 | 18006
2 | 4:00.07 | 3:50.40 | 18007 | 35296
3 | 7:50.47 | 3:59.15 | 35297 | 53236
4 | 11:49.62 | 5:03.30 | 53237 | 75991
5 | 16:53.17 | 4:30.58 | 75992 | 96299
6 | 21:24.00 | 4:47.05 | 96300 | 117829
7 | 26:11.05 | 3:44.62 | 117830 | 134691
8 | 29:55.67 | 5:10.53 | 134692 | 157994
9 | 35:06.45 | 5:00.50 | 157995 | 180544
10 | 40:07.20 | 6:41.25 | 180545 | 210644
Track 1
Filename E:\alexbras\1994 Coco Montoya - Gotta Mind To Travel\01. Too Much Water.wav
Pre-gap length 0:00:02.00
Peak level 89.6 %
Extraction speed 1.7 X
Track quality 100.0 %
Test CRC 09DA7029
Copy CRC 09DA7029
Accurately ripped (confidence 3) [6C67DC72] (AR v2)
Copy OK
Track 2
Filename E:\alexbras\1994 Coco Montoya - Gotta Mind To Travel\02. Gotta Mind To Travel.wav
Pre-gap length 0:00:00.05
Peak level 89.8 %
Extraction speed 1.9 X
Track quality 100.0 %
Test CRC 989FC9A5
Copy CRC 989FC9A5
Accurately ripped (confidence 3) [71EF7C8C] (AR v2)
Copy OK
Track 3
Filename E:\alexbras\1994 Coco Montoya - Gotta Mind To Travel\03. Talkin' Woman Blues.wav
Pre-gap length 0:00:00.20
Peak level 90.1 %
Extraction speed 2.1 X
Track quality 100.0 %
Test CRC 92820607
Copy CRC 92820607
Accurately ripped (confidence 3) [486A1098] (AR v2)
Copy OK
Track 4
Filename E:\alexbras\1994 Coco Montoya - Gotta Mind To Travel\04. Someday After Awhile.wav
Pre-gap length 0:00:01.07
Peak level 89.8 %
Extraction speed 2.3 X
Track quality 100.0 %
Test CRC 9AAA9EA3
Copy CRC 9AAA9EA3
Accurately ripped (confidence 3) [E43BF646] (AR v2)
Copy OK
Track 5
Filename E:\alexbras\1994 Coco Montoya - Gotta Mind To Travel\05. Top Of The Hill.wav
Pre-gap length 0:00:00.27
Peak level 89.8 %
Extraction speed 2.2 X
Track quality 99.9 %
Test CRC 28143595
Copy CRC 28143595
Accurately ripped (confidence 3) [51D90AEF] (AR v2)
Copy OK
Track 6
Filename E:\alexbras\1994 Coco Montoya - Gotta Mind To Travel\06. Same Dog.wav
Pre-gap length 0:00:00.40
Peak level 89.7 %
Extraction speed 2.6 X
Track quality 100.0 %
Test CRC 965CB0EF
Copy CRC 965CB0EF
Accurately ripped (confidence 3) [A886C432] (AR v2)
Copy OK
Track 7
Filename E:\alexbras\1994 Coco Montoya - Gotta Mind To Travel\07. Love Jail.wav
Pre-gap length 0:00:00.33
Peak level 90.1 %
Extraction speed 2.7 X
Track quality 100.0 %
Test CRC 5D6450F3
Copy CRC 5D6450F3
Accurately ripped (confidence 3) [4792CA05] (AR v2)
Copy OK
Track 8
Filename E:\alexbras\1994 Coco Montoya - Gotta Mind To Travel\08. You Don't Love Me.wav
Pre-gap length 0:00:01.42
Peak level 89.9 %
Extraction speed 2.9 X
Track quality 100.0 %
Test CRC E6E09487
Copy CRC E6E09487
Accurately ripped (confidence 3) [88EAF153] (AR v2)
Copy OK
Track 9
Filename E:\alexbras\1994 Coco Montoya - Gotta Mind To Travel\09. Nothin' In The Streets.wav
Pre-gap length 0:00:01.28
Peak level 89.8 %
Extraction speed 3.1 X
Track quality 100.0 %
Test CRC D731122F
Copy CRC D731122F
Accurately ripped (confidence 3) [A35F4DE2] (AR v2)
Copy OK
Track 10
Filename E:\alexbras\1994 Coco Montoya - Gotta Mind To Travel\10. Am I Losing You.wav
Pre-gap length 0:00:00.28
Peak level 89.6 %
Extraction speed 3.3 X
Track quality 100.0 %
Test CRC 6FECA12A
Copy CRC 6FECA12A
Accurately ripped (confidence 3) [E9CA16C3] (AR v2)
Copy OK
All tracks accurately ripped
No errors occurred
End of status report
==== Log checksum B2B03DAFFB84949FF95F7885DAA17CB4556DF1DCA600B7A12BDC338F5718545D ====

Содержание индексной карты (.CUE)

REM GENRE Blues
REM DATE 1994
REM DISCID 7A0AF80A
REM COMMENT "ExactAudioCopy v1.1"
PERFORMER "Coco Montoya"
TITLE "Gotta Mind To Travel"
FILE "01. Too Much Water.wav" WAVE
TRACK 01 AUDIO
TITLE "Too Much Water"
PERFORMER "Coco Montoya"
INDEX 01 00:00:00
TRACK 02 AUDIO
TITLE "Gotta Mind To Travel"
PERFORMER "Coco Montoya"
INDEX 00 04:00:02
FILE "02. Gotta Mind To Travel.wav" WAVE
INDEX 01 00:00:00
TRACK 03 AUDIO
TITLE "Talkin' Woman Blues"
PERFORMER "Coco Montoya"
INDEX 00 03:50:20
FILE "03. Talkin' Woman Blues.wav" WAVE
INDEX 01 00:00:00
TRACK 04 AUDIO
TITLE "Someday After Awhile"
PERFORMER "Coco Montoya"
INDEX 00 03:58:08
FILE "04. Someday After Awhile.wav" WAVE
INDEX 01 00:00:00
TRACK 05 AUDIO
TITLE "Top Of The Hill"
PERFORMER "Coco Montoya"
INDEX 00 05:03:03
FILE "05. Top Of The Hill.wav" WAVE
INDEX 01 00:00:00
TRACK 06 AUDIO
TITLE "Same Dog"
PERFORMER "Coco Montoya"
INDEX 00 04:30:18
FILE "06. Same Dog.wav" WAVE
INDEX 01 00:00:00
TRACK 07 AUDIO
TITLE "Love Jail"
PERFORMER "Coco Montoya"
INDEX 00 04:46:47
FILE "07. Love Jail.wav" WAVE
INDEX 01 00:00:00
TRACK 08 AUDIO
TITLE "You Don't Love Me"
PERFORMER "Coco Montoya"
INDEX 00 03:43:20
FILE "08. You Don't Love Me.wav" WAVE
INDEX 01 00:00:00
TRACK 09 AUDIO
TITLE "Nothin' In The Streets"
PERFORMER "Coco Montoya"
INDEX 00 05:09:25
FILE "09. Nothin' In The Streets.wav" WAVE
INDEX 01 00:00:00
TRACK 10 AUDIO
TITLE "Am I Losing You"
PERFORMER "Coco Montoya"
INDEX 00 05:00:22
FILE "10. Am I Losing You.wav" WAVE
INDEX 01 00:00:00

Об альбоме (сборнике)

https://www.discogs.com/Coco-Montoya-Gotta-Mind-To-Travel/release/5390230
Silvertone Records - 74321 18886 2 Format: CD, Album Country: UK Released: 1994
https://www.allmusic.com/album/gotta-mind-to-travel-mw0000173327
Backing Vocals – Kellie Rucker (tracks: 1)
Bass – Albert Molinaro
Drums – Joe Yuele (tracks: 1 to 3, 6 to 9), Mark T. Williams (tracks: 4), Ritchie Hayward (tracks: 5)
Drums, Percussion – Mark T. Williams (tracks: 10)
Guitar, Vocals – Coco Montoya (tracks: 9)
Harmonica, Piano, Vocals – John Mayall (tracks: 5)
Horns – Darryl Leonard (tracks: 2, 9), Joe Sublett (tracks: 2, 9)
Lead Guitar – Albert Collins (tracks: 3)
Lead Guitar, Vocals – Coco Montoya (tracks: 1 to 8, 10), Debbie Davies (tracks: 9)
Organ – Al Kooper (tracks: 4), Mike Finnegan (tracks: 1 to 3, 6 to 9)
Organ, Piano – Benny Yee (tracks: 10)
Piano – Rob Rio (tracks: 8)
Rhythm Guitar – Debbie Davies (tracks: 2, 4 to 8, 10)
Rhythm Guitar, Backing Vocals – Debbie Davies (tracks: 1, 3)
Годы ученичества у Albert Collins и John Mayall принесли Coco Montoya прекрасную победу в этом дебюте. С помощью известных друзей (Debbie Davies, Al Kooper, Richie Hayward из Little Feat и обоих бывших работодателей) Montoya был в центре внимания. К сожалению, это было одно из последних выступлений Albert Collins в студии перед его смертью, когда он играл в сочинении Lowell Fulson "Talking Woman Blues" (обычно известного, как "Honey Hush"). Здесь Montoya демонстрирует свои универсальные гитарные способности и это лишь малая часть материала из его концертных выступлений.
К 1994 году, после пяти лет в группе Albert Collins и 10 лет в группе John Mayall, гитарист Coco Montoya так долго изучал свою область, что заслуживает докторскую степень в блюзе. В качестве его диссертации выступает его первый сольный альбом "Gotta Mind To Travel", впечатляющий документ, который должен пройти проверку любого экзаменационного комитета.
Montoya давно известен, как гитарист со вкусом, но в этом дебюте он также показывает удивительно сильный, гибкий вокал и инстинкт для написания песен. Результатом является появление уже зрелого таланта в его самом первом сольном проекте.
Other forum [Profile] [PM]
Similar theme
Forum Topic Author Torrent Replies Last Post
./templates/default/images/folder_dl.gif Rock (Classic Rock) 30,000 Days - Every Single Day - 2015, MP3, 320 kbps Omen
1 | 0

0 | 914

2

2015-12-29 18:00
Omen Latest
Display posts from previous:    
Reply to topic

The time now is: Today 23:11

All times are GMT + 3 Hours



You cannot post new topics in this forum
You cannot reply to topics in this forum
You cannot edit your posts in this forum
You cannot delete your posts in this forum
You cannot vote in polls in this forum
You cannot attach files in this forum
You cannot download files in this forum