Today is a free download without charge Download

Дельфин Берни / Bernie The Dolphin (Кирк Харрис) [2018, Боевик, комедия, семейный, BDRip 1080p] [DUB] [iTunes]

Reply to topic
DL-List and Torrent activity
Size:  7.21 GB   |    Registered:  6 months 9 days   |    Completed:  0 times

Seeder not seen: Never

 
 
 
 
 
Author
Message

Орлов Владимир ®

Gender:

Longevity: 8 months 18 days

Posts: 464

Location: Россия , Долгопрудный, Моск.обл

Торрент-статистика

Post 18-Nov-2019 18:21

[Quote]

--Дельфин Берни / Bernie The Dolphin--
Информация о фильме
Название: Дельфин Берни
Оригинальное название: Bernie The Dolphin
Год выпуска: 2018
Жанр: Приключения, комедия, семейный
Режиссер: Кирк Харрис--В ролях: Лола Султан, Логан Аллен, Кевин Сорбо, Стелио Саванте, Шон Майкл Глория, Патрик Малдун, Дахлия Леголт, Сэм Сорбо--О фильме:
Одиннадцатилетний Кевин и его младшая сестренка Холли живут на побережье Флориды, обожают исследовать подводный мир и часто играют с их другом - дельфином Берни и его семьей. Но однажды Берни пропадает, и во время его поисков дети случайно узнают об ужасных планах местного бизнесмена Уинстона Миллса: на месте их любимого пляжа он хочет построить химический завод, что несет огромную угрозу для всех морских обитателей, живущих в этих краях. Теперь героям предстоит разработать план, чтобы спасти пляж и помочь Берни вернуться к семье.-- --Страна: Канада
Студия: Fairway Film Alliance
Продолжительность: 01:27:52
Перевод: Дублированный iTunes--Файл
Качество: BDRip 1080p
Видео: MPEG-4 AVC, 1920x816, 10.7 Mbit/s, 23.976 fps
Аудио #01: 48 kHz, AC3, 5.1, 384 Kbps | iTunes | RUS |
Аудио #02: 48 kHz, AC3, 5.1, 640 Kbps | Оригинал | ENG |
Субтитры: Английские

Скриншоты

         

Тех.данные видеофайла

General
Unique ID : 51635604993781886730536227950909338542 (0x26D8A7E18D6EAD033B70EB77DA7E33AE)
Complete name : D:Video111Bernie.The.Dolphin.2018.BDRip.1080p.seleZen.mkv
Format : Matroska
Format version : Version 4
File size : 7.21 GiB
Duration : 1 h 27 min
Overall bit rate : 11.8 Mb/s
Movie name : Bernie The Dolphin 2018 from селезень
Encoded date : UTC 2019-11-18 14:33:10
Writing application : mkvmerge v40.0.0 ('Old Town Road + Pony') 64-bit
Writing library : libebml v1.3.9 + libmatroska v1.5.2
Video
ID : 1
Format : AVC
Format/Info : Advanced Video Codec
Format profile : High@L4.1
Format settings : CABAC / 5 Ref Frames
Format settings, CABAC : Yes
Format settings, Reference : 5 frames
Codec ID : V_MPEG4/ISO/AVC
Duration : 1 h 27 min
Bit rate : 10.7 Mb/s
Width : 1 920 pixels
Height : 816 pixels
Display aspect ratio : 2.35:1
Frame rate mode : Constant
Frame rate : 23.976 (24000/1001) FPS
Color space : YUV
Chroma subsampling : 4:2:0
Bit depth : 8 bits
Scan type : Progressive
Bits/(Pixel*Frame) : 0.286
Stream size : 6.58 GiB (91%)
Title : HJ
Writing library : x264 core 157 r2935 545de2f
Encoding settings : cabac=1 / ref=5 / deblock=1:-3:-3 / analyse=0x3:0x133 / me=umh / subme=10 / psy=1 / psy_rd=1.00:0.00 / mixed_ref=1 / me_range=32 / chroma_me=1 / trellis=2 / 8x8dct=1 / cqm=0 / deadzone=21,11 / fast_pskip=0 / chroma_qp_offset=-2 / threads=24 / lookahead_threads=6 / sliced_threads=0 / nr=0 / decimate=0 / interlaced=0 / bluray_compat=0 / constrained_intra=0 / bframes=16 / b_pyramid=2 / b_adapt=2 / b_bias=0 / direct=3 / weightb=1 / open_gop=0 / weightp=2 / keyint=240 / keyint_min=24 / scenecut=40 / intra_refresh=0 / rc_lookahead=60 / rc=crf / mbtree=0 / crf=15.0 / qcomp=0.60 / qpmin=0 / qpmax=69 / qpstep=4 / vbv_maxrate=62500 / vbv_bufsize=78125 / crf_max=0.0 / nal_hrd=none / filler=0 / ip_ratio=1.40 / pb_ratio=1.30 / aq=2:1.00
Language : English
Default : Yes
Forced : No
Color range : Limited
Color primaries : BT.709
Transfer characteristics : BT.709
Matrix coefficients : BT.709
Audio #1
ID : 2
Format : AC-3
Format/Info : Audio Coding 3
Commercial name : Dolby Digital
Codec ID : A_AC3
Duration : 1 h 27 min
Bit rate mode : Constant
Bit rate : 384 kb/s
Channel(s) : 6 channels
Channel layout : L R C LFE Ls Rs
Sampling rate : 48.0 kHz
Frame rate : 31.250 FPS (1536 SPF)
Bit depth : 16 bits
Compression mode : Lossy
Stream size : 241 MiB (3%)
Title : iTunes
Language : Russian
Service kind : Complete Main
Default : Yes
Forced : Yes
Audio #2
ID : 3
Format : AC-3
Format/Info : Audio Coding 3
Commercial name : Dolby Digital
Codec ID : A_AC3
Duration : 1 h 27 min
Bit rate mode : Constant
Bit rate : 640 kb/s
Channel(s) : 6 channels
Channel layout : L R C LFE Ls Rs
Sampling rate : 48.0 kHz
Frame rate : 31.250 FPS (1536 SPF)
Bit depth : 16 bits
Compression mode : Lossy
Stream size : 402 MiB (5%)
Title : Original
Language : English
Service kind : Complete Main
Default : No
Forced : No
Text
ID : 4
Format : UTF-8
Codec ID : S_TEXT/UTF8
Codec ID/Info : UTF-8 Plain Text
Duration : 12 s 262 ms
Bit rate : 58 b/s
Count of elements : 2
Stream size : 90.0 Bytes (0%)
Language : English
Default : No
Forced : No
Menu
00:00:00.000 : en:Chapter 1
00:02:34.905 : en:Chapter 2
00:12:10.396 : en:Chapter 3
00:23:06.510 : en:Chapter 4
00:29:23.845 : en:Chapter 5
00:34:18.556 : en:Chapter 6
00:42:55.948 : en:Chapter 7
00:49:51.071 : en:Chapter 8
00:54:52.998 : en:Chapter 9
01:03:44.779 : en:Chapter 10
01:13:40.249 : en:Chapter 11
01:22:08.006 : en:Chapter 12
[darkos.club].t338282.torrent 
Torrent: Registered   [ 2019-11-18 18:21 ]

Download

10 KB

Воспроизвести онлайн

Status: checked
Completed: 0 times
Size: 7.21 GB, InfoHash (Google it!)
Score:  5 (vote: 1)
Default: 1  Thank you   (list)
 

_________________
Other forum [Profile] [PM]
Display posts from previous:    
Reply to topic

The time now is: Today 11:22

All times are GMT + 3 Hours



You cannot post new topics in this forum
You cannot reply to topics in this forum
You cannot edit your posts in this forum
You cannot delete your posts in this forum
You cannot vote in polls in this forum
You cannot attach files in this forum
You can download files in this forum