Today is a free download without charge Download

(Classic Rock) The Who- I'm A Boy - 2007, FLAC (image + .cue), lossless

Reply to topic
 
Author
Message

Soldat_5 ®

Longevity: 10 months 15 days

Posts: 135

Торрент-статистика

Post 17-Nov-2019 10:44

[Quote]

The Who- I'm A Boy
Страна: Japan
Жанр: Classic Rock
Год выпуска: 2007
Формат: FLAC (image + .cue)
Битрейт аудио: lossless
Продолжительность: 00:31:03
Трэклист:
1 I'm A Boy 2:41
2 Run Run Run 2:46
3 Heatwave 1:56
4 Boris The Spider 2:31
5 I Need You 2:25
6 Circles 2:33
7 Whisky Man 3:00
8 In The City 2:26
9 Don't Look Away 2:55
10 You See My Way 1:55
11 Cobwebs And Strange 2:33
12 Disguises 3:22

Лог создания рипа

Exact Audio Copy V1.0 beta 3 from 29. August 2011
Отчёт EAC об извлечении, выполненном 17. ноября 2019, 9:32
The Who / I'm A Boy
Дисковод: TSSTcorpCDDVDW SH-224DB Adapter: 1 ID: 0
Режим чтения : Достоверность
Использование точного потока : Да
Отключение кэша аудио : Да
Использование указателей C2 : Нет
Коррекция смещения при чтении : 6
Способность читать области Lead-in и Lead-out : Нет
Заполнение пропущенных сэмплов тишиной : Да
Удаление блоков с тишиной в начале и конце : Нет
При вычислениях CRC использовались нулевые сэмплы : Да
Интерфейс : Встроенный Win32-интерфейс для Win NT/2000
Выходной формат : Пользовательский кодировщик
Выбранный битрейт : 128 kBit/s
Качество : Высокий
Добавление ID3-тега : Нет
Утилита сжатия : C:\Program Files (x86)\FLAC\flac.exe
Дополнительные параметры : -V -8 -T "Date=%year%" -T "Genre=%genre%" %source%
TOC извлечённого CD
Трек | Старт | Длительность | Начальный сектор | Конечный сектор
---------------------------------------------------------------------
1 | 0:00.00 | 2:40.70 | 0 | 12069
2 | 2:40.70 | 2:45.63 | 12070 | 24507
3 | 5:26.58 | 1:56.26 | 24508 | 33233
4 | 7:23.09 | 2:31.04 | 33234 | 44562
5 | 9:54.13 | 2:24.70 | 44563 | 55432
6 | 12:19.08 | 2:33.17 | 55433 | 66924
7 | 14:52.25 | 2:59.55 | 66925 | 80404
8 | 17:52.05 | 2:25.49 | 80405 | 91328
9 | 20:17.54 | 2:55.34 | 91329 | 104487
10 | 23:13.13 | 1:55.07 | 104488 | 113119
11 | 25:08.20 | 2:32.74 | 113120 | 124593
12 | 27:41.19 | 3:22.14 | 124594 | 139757
Характеристики диапазона извлечения и сообщения об ошибках
Выбранный диапазон
Имя файла C:\EAC\The Who - I'm A Boy - 2007 CD (Japan Release, Reissue, 1968, UICY-93167, Papersleeve)\The Who - I'm A Boy.wav
Пиковый уровень 100.0 %
Скорость извлечения 2.5 X
Качество диапазона 100.0 %
CRC теста 2F900A6E
CRC копии 2F900A6E
Копирование... OK
Ошибок не произошло
AccurateRip: сводка
Трек 1 : извлечено точно (доверие 5) [6932EAE1] (AR v2)
Трек 2 : извлечено точно (доверие 5) [16564B09] (AR v2)
Трек 3 : извлечено точно (доверие 5) [14FE9A62] (AR v2)
Трек 4 : извлечено точно (доверие 5) [90701183] (AR v2)
Трек 5 : извлечено точно (доверие 5) [017960BC] (AR v2)
Трек 6 : извлечено точно (доверие 5) [2F614119] (AR v2)
Трек 7 : извлечено точно (доверие 5) [D27BC5EC] (AR v2)
Трек 8 : извлечено точно (доверие 5) [85A80815] (AR v2)
Трек 9 : извлечено точно (доверие 5) [3A0EBD19] (AR v2)
Трек 10 : извлечено точно (доверие 5) [7D2E1E06] (AR v2)
Трек 11 : извлечено точно (доверие 5) [985E027C] (AR v2)
Трек 12 : извлечено точно (доверие 5) [38F1AB1C] (AR v2)
Все треки извлечены точно
Конец отчёта
==== Контрольная сумма отчёта 822CEF9A676FEF93049055E2CFD40F9BB9BD06335F142E70A36695C1AA93721A ====

Содержание индексной карты (.CUE)

REM DATE 2007
REM DISCID 9C07470C
REM COMMENT "ExactAudioCopy v1.0b3"
PERFORMER "The Who"
TITLE "I'm A Boy"
FILE "The Who - I'm A Boy.flac" WAVE
TRACK 01 AUDIO
TITLE "I'm A Boy"
PERFORMER "The Who"
INDEX 01 00:00:00
TRACK 02 AUDIO
TITLE "Run Run Run"
PERFORMER "The Who"
INDEX 00 02:37:48
INDEX 01 02:40:70
TRACK 03 AUDIO
TITLE " Heatwave"
PERFORMER "The Who"
INDEX 00 05:23:51
INDEX 01 05:26:58
TRACK 04 AUDIO
TITLE "Boris The Spider"
PERFORMER "The Who"
INDEX 00 07:20:07
INDEX 01 07:23:09
TRACK 05 AUDIO
TITLE "I Need You"
PERFORMER "The Who"
INDEX 00 09:51:04
INDEX 01 09:54:13
TRACK 06 AUDIO
TITLE "Circles"
PERFORMER "The Who"
INDEX 00 12:16:18
INDEX 01 12:19:08
TRACK 07 AUDIO
TITLE "Whisky Man"
PERFORMER "The Who"
INDEX 00 14:49:18
INDEX 01 14:52:25
TRACK 08 AUDIO
TITLE "In The City"
PERFORMER "The Who"
INDEX 00 17:48:34
INDEX 01 17:52:05
TRACK 09 AUDIO
TITLE "Don't Look Away"
PERFORMER "The Who"
INDEX 00 20:14:54
INDEX 01 20:17:54
TRACK 10 AUDIO
TITLE "You See My Way"
PERFORMER "The Who"
INDEX 00 23:09:37
INDEX 01 23:13:13
TRACK 11 AUDIO
TITLE "Cobwebs And Strange"
PERFORMER "The Who"
INDEX 00 25:05:48
INDEX 01 25:08:20
TRACK 12 AUDIO
TITLE "Disguises"
PERFORMER "The Who"
INDEX 00 27:38:17
INDEX 01 27:41:19
Other forum [Profile] [PM]
Similar theme
Forum Topic Author Torrent Replies Last Post
./templates/default/images/folder_dl.gif Rock (Classic Rock / Pub Rock) Cold Chisel - The Perfect Crime (Deluxe Edition) - 2015, MP3, 320 kbps Omen
1 | 0

0 | 1442

11

2015-10-02 21:00
Omen Latest
Display posts from previous:    
Reply to topic

The time now is: Today 04:07

All times are GMT + 3 Hours



You cannot post new topics in this forum
You cannot reply to topics in this forum
You cannot edit your posts in this forum
You cannot delete your posts in this forum
You cannot vote in polls in this forum
You cannot attach files in this forum
You cannot download files in this forum