Today is a free download without charge Download

Кокаиновый барон / Running with the Devil (2019) WEB-DL [H.264/1080p-LQ] [Локализованная версия]

Reply to topic
 
Author
Message

Clavik ®

Gender:

Longevity: 6 years 2 months

Posts: 2395

Location: Украина

Торрент-статистика

Post 10-Nov-2019 13:52

[Quote]

Кокаиновый барон / Running with the Devil (2019) WEB-DL [H.264/1080p-LQ]- Производство: Колумбия, США / Jaguar Bite, Patriot Pictures
Жанр: Триллер, драма, криминал
Режиссер: Джейсон Кэбелл
Актеры: Николас Кейдж, Лоуренс Фишборн, Бэрри Пеппер, Коул Хаузер, Лесли Бибб, Питер Фачинелли, Клифтон Коллинз мл., Адам Голдберг, Наталия Рейес, Тейт Флетчер
Описание:
Груз кокаина следует из Мексики через США в Канаду. Когда партия не достигает цели, лидер картеля Босс посылает своих верных помощников — Повара и Мужика — разобраться, как работает сеть поставщиков.

Возраст: 18+ (зрителям, достигшим 18 лет)
Рейтинг MPAA: R (лицам до 17 лет обязательно присутствие взрослого)
Дата мировой премьеры: 12 сентября 2019
Дата премьеры в России: 24 октября 2019

Релиз от: селезень
Продолжительность: 01:32:10
Качество видео: WEB-DL
Перевод: Дублированный (iTunes)
Субтитры: Русские (forced) хардсаб
Видео: AVC/H.264, 1920x806, ~4538 Kbps
Аудио: AC-3, 6 ch, 384 Kbps

MediaInfo:

Общее
Уникальный идентификатор : 231269218606494906400791122828789941166 (0xADFCD4D23C1C85A77A73E6273C3A03AE)
Полное имя : D:\NNM\Кокаиновый барон\Running.with.the.Devil.2019.WEB-DL.1080p-LQ.mkv
Формат : Matroska
Версия формата : Version 4
Размер файла : 3,17 Гбайт
Продолжительность : 1 ч. 32 м.
Общий поток : 4924 Кбит/сек
Название фильма : Running with the Devil 2019 from селезень
Дата кодирования : UTC 2019-11-04 21:12:57
Программа кодирования : mkvmerge v22.0.0 ('At The End Of The World') 64-bit
Библиотека кодирования : libebml v1.3.5 + libmatroska v1.4.8
Видео
Идентификатор : 1
Формат : AVC
Формат/Информация : Advanced Video Codec
Профиль формата : High@L4
Настройки формата : CABAC / 5 Ref Frames
Параметр CABAC формата : Да
Параметр RefFrames формата : 5 кадров
Идентификатор кодека : V_MPEG4/ISO/AVC
Продолжительность : 1 ч. 32 м.
Битрейт : 4538 Кбит/сек
Ширина : 1920 пикселей
Высота : 806 пикселей
Соотношение сторон : 2,40:1
Режим частоты кадров : Постоянный
Частота кадров : 24,000 кадра/сек
Цветовое пространство : YUV
Субдискретизация насыщенности : 4:2:0
Битовая глубина : 8 бит
Тип развёртки : Прогрессивная
Бит/(Пиксели*Кадры) : 0.122
Размер потока : 2,92 Гбайт (92%)
Язык : English
Default : Да
Forced : Нет
Цветовой диапазон : Limited
Основные цвета : BT.709
Характеристики трансфера : BT.709
Коэффициенты матрицы : BT.709
Аудио
Идентификатор : 2
Формат : AC-3
Формат/Информация : Audio Coding 3
Коммерческое название : Dolby Digital
Идентификатор кодека : A_AC3
Продолжительность : 1 ч. 32 м.
Вид битрейта : Постоянный
Битрейт : 384 Кбит/сек
Каналы : 6 каналов
ChannelLayout : L R C LFE Ls Rs
Частота : 48,0 КГц
Частота кадров : 31,250 кадров/сек (1536 SPF)
Битовая глубина : 16 бит
Метод сжатия : С потерями
Размер потока : 253 Мбайт (8%)
Заголовок : iTunes
Язык : Russian
ServiceKind/String : Complete Main
Default : Да
Forced : Да
Меню
00:00:00.000 : en:Глава 1
00:02:11.166 : en:Глава 2
00:07:19.041 : en:Глава 3
00:15:46.749 : en:Глава 4
00:20:53.457 : en:Глава 5
00:27:23.165 : en:Глава 6
00:37:20.623 : en:Глава 7
00:44:46.873 : en:Глава 8
00:54:06.206 : en:Глава 9
01:02:02.622 : en:Глава 10
01:10:27.747 : en:Глава 11
01:18:08.163 : en:Глава 12
01:24:12.996 : en:Глава 13
Скриншоты:        

_________________


Other forum [Profile] [PM]
Display posts from previous:    
Reply to topic

The time now is: Today 21:35

All times are GMT + 3 Hours



You cannot post new topics in this forum
You cannot reply to topics in this forum
You cannot edit your posts in this forum
You cannot delete your posts in this forum
You cannot vote in polls in this forum
You cannot attach files in this forum
You cannot download files in this forum