Today is a free download without charge Download

Хранители снов в 3Д / Rise of the Guardians 3D (Питер Рэмси / Peter Ramsey) [2012, мультфильм, фэнтези, приключения, семейный, BDRip] Half SideBySide / Горизонтальная анаморфная стереопара

Reply to topic
 
Author
Message

Omen ®

Longevity: 8 years 3 months

Posts: 181087

Торрент-статистика

Post 04-Oct-2016 01:00

[Quote]

- Название: Хранители снов
Оригинальное название: Rise of the Guardians
Год выпуска: 2012
Страна: США
Жанр: мультфильм, фэнтези, приключения, семейный
Продолжительность: 01:37:11
Перевод: Профессиональный (дублированный)
Субтитры: русские, украинские, английские
Оригинальная аудиодорожка: английский-Режиссер: Питер Рэмси / Peter Ramsey-В ролях: Крис Пайн, Алек Болдуин, Джуд Лоу, Айла Фишер, Хью Джекман, Дакота Гойо, Хамани Гриффин, Камиль МакФедден, Джорджи Грив, Эмили Нордвинд.-Описание: Удивительный мультфильм, который окунает нас в мир волшебства и сказки. Всем известные герои Северянин, Зубная Фея, Кролик и Песочный человек стараются защитить детские мечты от злого духа Кромешника. Они сделают все, чтобы дети всего мира не перестали верить в чудеса. Помимо вышеназванных героев есть еще один персонаж, который «по совместительству» является главным героем. Он повелитель зимней погоды, но почти никто его не знает. В его руках находится огромная сила, но тратит он ее на разные шалости. Его зовут Ледяной Джек, и больше всего на свете он хочет, чтобы люди верили в него. Вот только пока что у Джека не очень получается завоевать сердца людей. Но его энергии и энтузиазму позавидуют многие. Поэтому наш герой не допустит, чтобы дети лишились чуда.-Формат 3D: Half SideBySide / Горизонтальная анаморфная стереопара
Качество: BDRip (zman)
Контейнер: MKV
Видео: 1920x1080 at 23.976 fps, x264@L4.1, crf, ~10300 kbps avg
Аудио 1: Russian 48 kHz, AC3, 3/2 (L,C,R,l,r) + LFE ch, 640.00 kbps avg | Дубляж BD CEE
Аудио 2: Ukrainian 48 kHz, AC3, 3/2 (L,C,R,l,r) + LFE ch, 640.00 kbps avg | Дубдяж BD CEE
Аудио 3: English 48 kHz, AC3, 3/2 (L,C,R,l,r) + LFE ch, 640.00 kbps avg | Original
Субтитры: русские полные, украинские полные, английские полные, английские полные sdh

Инфо

Формат : Matroska
Версия формата : Version 4 / Version 2
Размер файла : 8,33 Гбайт
Продолжительность : 1 ч. 37 м.
Общий поток : 12,3 Мбит/сек
Название фильма : Rise of the Guardians 2012 Seven
Дата кодирования : UTC 2016-09-10 06:46:53
Программа кодирования : mkvmerge v9.3.1 ('Mask Machine') 32bit
Библиотека кодирования : libebml v1.3.4 + libmatroska v1.4.5
Видео
Идентификатор : 1
Формат : AVC
Формат/Информация : Advanced Video Codec
Профиль формата : High@L4.1
MultiView_Count : 2
MultiView_Layout : Side by Side (left eye first)
Параметр CABAC формата : Да
Параметр ReFrames формата : 4 кадра
Идентификатор кодека : V_MPEG4/ISO/AVC
Продолжительность : 1 ч. 37 м.
Битрейт : 10,3 Мбит/сек
Ширина : 1920 пикселей
Высота : 1080 пикселей
Соотношение сторон : 16:9
Режим частоты кадров : Постоянный
Частота кадров : 23,976 (24000/1001) кадра/сек
Цветовое пространство : YUV
Субдискретизация насыщенности : 4:2:0
Битовая глубина : 8 бит
Тип развёртки : Прогрессивная
Бит/(Пиксели*Кадры) : 0.208
Размер потока : 7,02 Гбайт (84%)
Заголовок : zman
Библиотека кодирования : x264 core 129 r2245 bc13772
Настройки программы : cabac=1 / ref=4 / deblock=1:-3:-3 / analyse=0x3:0x113 / me=umh / subme=9 / psy=1 / psy_rd=1.00:0.15 / mixed_ref=1 / me_range=16 / chroma_me=1 / trellis=1 / 8x8dct=1 / cqm=0 / deadzone=21,11 / fast_pskip=1 / chroma_qp_offset=-3 / threads=12 / lookahead_threads=2 / sliced_threads=0 / nr=0 / decimate=1 / interlaced=0 / bluray_compat=0 / constrained_intra=0 / bframes=6 / b_pyramid=2 / b_adapt=1 / b_bias=0 / direct=3 / weightb=1 / open_gop=0 / weightp=2 / keyint=250 / keyint_min=23 / scenecut=40 / intra_refresh=0 / rc_lookahead=40 / rc=crf / mbtree=1 / crf=18.0 / qcomp=0.60 / qpmin=10 / qpmax=69 / qpstep=4 / vbv_maxrate=40000 / vbv_bufsize=30000 / crf_max=0.0 / nal_hrd=none / ip_ratio=1.40 / aq=1:1.00
Язык : English
Default : Да
Forced : Нет
Аудио #1
Идентификатор : 2
Формат : AC-3
Формат/Информация : Audio Coding 3
Расширение режима : CM (complete main)
Параметр Endianness формата : Big
Идентификатор кодека : A_AC3
Продолжительность : 1 ч. 37 м.
Вид битрейта : Постоянный
Битрейт : 640 Кбит/сек
Каналы : 6 каналов
Расположение каналов : Front: L C R, Side: L R, LFE
Частота : 48,0 КГц
Частота кадров : 31,250 кадров/сек (1536 spf)
Метод сжатия : С потерями
Размер потока : 445 Мбайт (5%)
Заголовок : Dub BD CEE
Язык : Russian
Default : Да
Forced : Нет
Аудио #2
Идентификатор : 3
Формат : AC-3
Формат/Информация : Audio Coding 3
Расширение режима : CM (complete main)
Параметр Endianness формата : Big
Идентификатор кодека : A_AC3
Продолжительность : 1 ч. 37 м.
Вид битрейта : Постоянный
Битрейт : 640 Кбит/сек
Каналы : 6 каналов
Расположение каналов : Front: L C R, Side: L R, LFE
Частота : 48,0 КГц
Частота кадров : 31,250 кадров/сек (1536 spf)
Метод сжатия : С потерями
Размер потока : 445 Мбайт (5%)
Заголовок : Dub BD CEE
Язык : Ukrainian
Default : Нет
Forced : Нет
Аудио #3
Идентификатор : 4
Формат : AC-3
Формат/Информация : Audio Coding 3
Расширение режима : CM (complete main)
Параметр Endianness формата : Big
Идентификатор кодека : A_AC3
Продолжительность : 1 ч. 37 м.
Вид битрейта : Постоянный
Битрейт : 640 Кбит/сек
Каналы : 6 каналов
Расположение каналов : Front: L C R, Side: L R, LFE
Частота : 48,0 КГц
Частота кадров : 31,250 кадров/сек (1536 spf)
Метод сжатия : С потерями
Размер потока : 445 Мбайт (5%)
Заголовок : Original
Язык : English
Default : Нет
Forced : Нет
Текст #1
Идентификатор : 5
Формат : UTF-8
Идентификатор кодека : S_TEXT/UTF8
Идентификатор кодека/Информация : UTF-8 Plain Text
Продолжительность : 1 ч. 36 м.
Битрейт : 75 бит/сек
Count of elements : 1177
Размер потока : 53,3 Кбайт (0%)
Заголовок : Full
Язык : Russian
Default : Нет
Forced : Нет
Текст #2
Идентификатор : 6
Формат : UTF-8
Идентификатор кодека : S_TEXT/UTF8
Идентификатор кодека/Информация : UTF-8 Plain Text
Продолжительность : 1 ч. 36 м.
Битрейт : 71 бит/сек
Count of elements : 1179
Размер потока : 50,5 Кбайт (0%)
Заголовок : Full
Язык : Ukrainian
Default : Нет
Forced : Нет
Текст #3
Идентификатор : 7
Формат : UTF-8
Идентификатор кодека : S_TEXT/UTF8
Идентификатор кодека/Информация : UTF-8 Plain Text
Продолжительность : 1 ч. 27 м.
Битрейт : 47 бит/сек
Count of elements : 1170
Размер потока : 30,7 Кбайт (0%)
Заголовок : Full
Язык : English
Default : Нет
Forced : Нет
Текст #4
Идентификатор : 8
Формат : UTF-8
Идентификатор кодека : S_TEXT/UTF8
Идентификатор кодека/Информация : UTF-8 Plain Text
Продолжительность : 1 ч. 32 м.
Битрейт : 55 бит/сек
Count of elements : 1537
Размер потока : 37,6 Кбайт (0%)
Заголовок : Full SDH
Язык : English
Default : Нет
Forced : Нет
Меню
00:00:00.000 : en:00:00:00.000
00:03:51.481 : en:00:03:51.481
00:10:34.843 : en:00:10:34.843
00:16:17.643 : en:00:16:17.643
00:24:49.363 : en:00:24:49.363
00:30:38.378 : en:00:30:38.378
00:36:38.947 : en:00:36:38.947
00:43:05.166 : en:00:43:05.166
00:50:22.311 : en:00:50:22.311
00:58:09.611 : en:00:58:09.611
01:03:55.331 : en:01:03:55.331
01:09:12.815 : en:01:09:12.815
01:14:03.189 : en:01:14:03.189
01:20:44.923 : en:01:20:44.923
01:24:51.503 : en:01:24:51.503
01:28:33.892 : en:01:28:33.892

Скриншоты

Other forum [Profile] [PM]

Krasnoweks

Торрент-статистика

Post 06-Aug-2019 13:36 (after 2 years 10 months)

[Quote]

Как бы по морали и знаниям вместо Луны-Месяца должно быть Солнце, христиане-евреи тупо заменили наше Солнце своим поклонением Луне, но остальное оставили на месте, чтобы мы явно не плюнули на этот мультик-фантазию
И все происходит ночью, ужас, сатанисты делали точно, дабы перестроить сознание детское
Но сделано все качественно, все фразы, все вообще не смотря на не наше, не русское
Детям надо показывать этот мультик, но не забывать напоминать, что у нас Солнце приносит жизнь, радость, знания и свет, оно нас направляет, а не Месяц
Все славянские праздники начинаются с утра в отличии от христианских еврейских ночных
Будте осторожны с закладыванием инфо в русских детях
 
Display posts from previous:    
Reply to topic

The time now is: Today 07:23

All times are GMT + 3 Hours



You cannot post new topics in this forum
You cannot reply to topics in this forum
You cannot edit your posts in this forum
You cannot delete your posts in this forum
You cannot vote in polls in this forum
You cannot attach files in this forum
You cannot download files in this forum