Today is a free download without charge Download

NG. Осушить океан: глубокое погружение. Катастрофы в глубоких водах / Drain the Oceans: Deep Dive. Deep Water Disasters (2018) HDTVRip [H.264/1080p-LQ]

Reply to topic
 
Author
Message

RazBoyNik ®

Gender:

Longevity: 6 years 11 months

Posts: 471

Торрент-статистика

Post 10-Jul-2019 12:58

[Quote]

Осушить океан: глубокое погружение. Катастрофы в глубоких водах / Drain the Oceans: Deep Dive. Deep Water Disasters (2018) HDTVRip [H.264/1080p-LQ] - Год выпуска: 2018
Страна: Великобритания, Австралия, Mallinson Sadler Productions, Electric Pictures, National Geographic
Жанр: Документальный, история, исследования
Режиссер: Софи Элвин Харрис, Майкл Дивайс
Описание:
В глубинах океана живет чудовище, рождающее землетрясения. Крупнейший в мире источник цунами. Его опасность была скрыта от глаз, до сегодняшнего дня. Мы узнаем, как происходят глубоководные катастрофы.
Продолжительность: 00:43:59
Качество видео: HDTV
Перевод: Одноголосый закадровый, профессиональный
Субтитры: отсутствуют
Видео: AVC/H.264, 1920x1080, ~4050 Kbps
Аудио#1: AAC, 2 ch, 192 Kbps | Русский
Аудио#2: AC3, 2 ch, 192 Kbps | Английский

Mediainfo:

Общее
Уникальный идентификатор : 100786034306823279661046427067227814804 (0x4BD2AF241C548ADE88726A7F2EA7BB94)
Полное имя : F:\КИНО\Катастрофы.в.глубоких.водах.2018.HDTVRip.mkv
Формат : Matroska
Версия формата : Version 4
Размер файла : 1,36 Гбайт
Продолжительность : 43 м. 59 с.
Режим общего битрейта : Переменный
Общий поток : 4434 Кбит/сек
Дата кодирования : UTC 2019-07-08 20:08:32
Программа кодирования : mkvmerge v35.0.0 ('All The Love In The World') 64-bit
Библиотека кодирования : libebml v1.3.9 + libmatroska v1.5.2
Видео
Идентификатор : 1
Формат : AVC
Формат/Информация : Advanced Video Codec
Профиль формата : High@L4
Настройки формата : CABAC / 4 Ref Frames
Параметр CABAC формата : Да
Параметр RefFrames формата : 4 кадра
Идентификатор кодека : V_MPEG4/ISO/AVC
Продолжительность : 43 м. 59 с.
Вид битрейта : Переменный
Битрейт : 4050 Кбит/сек
Максимальный битрейт : 4500 Кбит/сек
Ширина : 1920 пикселей
Высота : 1080 пикселей
Соотношение сторон : 16:9
Режим частоты кадров : Постоянный
Частота кадров : 25,000 кадров/сек
Цветовое пространство : YUV
Субдискретизация насыщенности : 4:2:0
Битовая глубина : 8 бит
Тип развёртки : Прогрессивная
Бит/(Пиксели*Кадры) : 0.078
Размер потока : 1,24 Гбайт (91%)
Default : Да
Forced : Нет
Аудио #1
Идентификатор : 2
Формат : AAC LC
Формат/Информация : Advanced Audio Codec Low Complexity
Идентификатор кодека : A_AAC-2
Продолжительность : 43 м. 59 с.
Битрейт : 192 Кбит/сек
Каналы : 2 канала
ChannelLayout : L R
Частота : 48,0 КГц
Частота кадров : 46,875 кадров/сек (1024 SPF)
Метод сжатия : С потерями
Размер потока : 59,6 Мбайт (4%)
Язык : Russian
Default : Да
Forced : Нет
Аудио #2
Идентификатор : 3
Формат : AC-3
Формат/Информация : Audio Coding 3
Коммерческое название : Dolby Digital
Идентификатор кодека : A_AC3
Продолжительность : 43 м. 59 с.
Вид битрейта : Постоянный
Битрейт : 192 Кбит/сек
Каналы : 2 канала
ChannelLayout : L R
Частота : 48,0 КГц
Частота кадров : 31,250 кадров/сек (1536 SPF)
Битовая глубина : 16 бит
Метод сжатия : С потерями
Размер потока : 60,4 Мбайт (4%)
Язык : English
ServiceKind/String : Complete Main
Default : Нет
Forced : Нет
Скриншоты:
       
Other forum [Profile] [PM]
Display posts from previous:    
Reply to topic

The time now is: Today 12:24

All times are GMT + 3 Hours



You cannot post new topics in this forum
You cannot reply to topics in this forum
You cannot edit your posts in this forum
You cannot delete your posts in this forum
You cannot vote in polls in this forum
You cannot attach files in this forum
You cannot download files in this forum