Today is a free download without charge Download

Animal Planet: В дикие края с Эваном. Киты и акулы / Evan Goes Wild (2019) HDTV [H.264/1080i]

Reply to topic
 
Author
Message

RazBoyNik ®

Gender:

Longevity: 7 years 8 months

Posts: 478

Торрент-статистика

Post 09-Jul-2019 08:42

[Quote]

В дикие края с Эваном. Киты и акулы / Evan Goes Wild (2019) HDTV [H.264/1080i] - Год выпуска: 2019
Страна: США, Industrial Media, Animal Planet
Жанр: Документальный, исследование, фауна
Описание:
Ветеринар Эван Энтин путешествует по миру, спасает и лечит диких зверей. Пусть он родился в Канзасе, но его любовь к братьям нашим меньшим не знает границ, и у него есть длинный список животных, которых он мечтает увидеть в их естественной среде обитания.
Прибыв на остров Таити, Эван отправляется плавать с горбатыми китами. Также он помогает собрать образцы ДНК желтых акул и спасает выводок брошенных котят.
Продолжительность: 00:43:51
Качество видео: HDTV
Перевод: Двуголосый закадровый, профессиональный
Субтитры: отсутствуют
Видео: AVC/H.264, 1920x1080, ~10,7 Mbps
Аудио#1: MP2, 2 ch, 192 Kbps | Русский
Аудио#2: MP2, 2 ch, 192 Kbps | Английский

Mediainfo:

Общее
Идентификатор : 1 (0x1)
Полное имя : F:\КИНО\В дикие кр. с Эваном. Киты и акулы 1080 (2019).ts
Формат : MPEG-TS
Размер файла : 3,56 Гбайт
Продолжительность : 43 м. 51 с.
Режим общего битрейта : Переменный
Общий поток : 11,6 Мбит/сек
Видео
Идентификатор : 1026 (0x402)
Идентификатор меню : 119 (0x77)
Формат : AVC
Формат/Информация : Advanced Video Codec
Профиль формата : High@L4
Настройки формата : CABAC / 4 Ref Frames
Параметр CABAC формата : Да
Параметр RefFrames формата : 4 кадра
Идентификатор кодека : 27
Продолжительность : 43 м. 51 с.
Битрейт : 10,7 Мбит/сек
Ширина : 1920 пикселей
Высота : 1080 пикселей
Соотношение сторон : 16:9
Частота кадров : 25,000 кадров/сек
Стандарт вещания : Component
Цветовое пространство : YUV
Субдискретизация насыщенности : 4:2:0
Битовая глубина : 8 бит
Тип развёртки : Чересстрочная
Метод сохранения типа развёртки : Раздельные поля
Порядок развёртки : Верхнее поле первое
Бит/(Пиксели*Кадры) : 0.206
Размер потока : 3,26 Гбайт (92%)
Цветовой диапазон : Limited
Основные цвета : BT.709
Характеристики трансфера : BT.709
Коэффициенты матрицы : BT.709
Аудио #1
Идентификатор : 1027 (0x403)
Идентификатор меню : 119 (0x77)
Формат : MPEG Audio
Версия формата : Version 1
Профиль формата : Layer 2
Идентификатор кодека : 3
Продолжительность : 43 м. 51 с.
Вид битрейта : Постоянный
Битрейт : 192 Кбит/сек
Каналы : 2 канала
Частота : 48,0 КГц
Частота кадров : 41,667 кадра/сек (1152 SPF)
Метод сжатия : С потерями
Задержка видео : -80 мс.
Размер потока : 60,2 Мбайт (2%)
Язык : Russian
Аудио #2
Идентификатор : 1028 (0x404)
Идентификатор меню : 119 (0x77)
Формат : MPEG Audio
Версия формата : Version 1
Профиль формата : Layer 2
Идентификатор кодека : 3
Продолжительность : 43 м. 51 с.
Вид битрейта : Постоянный
Битрейт : 192 Кбит/сек
Каналы : 2 канала
Частота : 48,0 КГц
Частота кадров : 41,667 кадра/сек (1152 SPF)
Метод сжатия : С потерями
Задержка видео : -80 мс.
Размер потока : 60,2 Мбайт (2%)
Язык : English
Скриншоты:
       
Other forum [Profile] [PM]
Display posts from previous:    
Reply to topic

The time now is: Today 05:00

All times are GMT + 3 Hours



You cannot post new topics in this forum
You cannot reply to topics in this forum
You cannot edit your posts in this forum
You cannot delete your posts in this forum
You cannot vote in polls in this forum
You cannot attach files in this forum
You cannot download files in this forum