Today is a free download without charge Download

(Hard Rock) Nazareth - Tattooed On My Brain - 2018 [FLAC, image +.cue, lossless]

Reply to topic
 
Author
Message

sergej644 ®

Gender:

Longevity: 7 years 5 months

Posts: 636

Торрент-статистика

Post 28-Jan-2019 20:23

[Quote]

-Nazareth - Tattooed On My Brain--
Год издания: 2018
Страна: Scotland | UK
Жанр: Hard Rock
Продолжительность: 00:51:50-Лейбл издания: Frontiers Music
Страна-выпуска диска: Italy
Номер по каталогу: FR CD 890-Формат: FLAC
Битрейт аудио: Lossless
Тип рипа: image +.cue
Наличие сканов в содержимом раздачи: да
-

Трэклист


01. Never Dance With The Devil (3:00)
02. Tattooed On My Brain (2:50)
03. State Of Emergency (3:42)
04. Rubik's Romance (4:06)
05. Pole To Pole (4:19)
06. Push (3:49)
07. The Secret Is Out (5:31)
08. Don't Throw Your Love Away (3:37)
09. Crazy Molly (3:03)
10. Silent Symphony (3:48)
11. What Goes Around (4:01)
12. Change (3:56)
13. You Call Me (6:10)
-

Лог создания рипа

Код:
Exact Audio Copy V1.3 from 2. September 2016
Отчёт EAC об извлечении, выполненном 13. октября 2018, 13:21
Nazareth / Tattooed On My Brain
Дисковод: HL-DT-STDVDRAM GU40N   Adapter: 0  ID: 1
Режим чтения                 : Достоверность
Использование точного потока : Да
Отключение кэша аудио        : Да
Использование указателей C2  : Нет
Коррекция смещения при чтении                     : 103
Способность читать области Lead-in и Lead-out     : Нет
Заполнение пропущенных сэмплов тишиной            : Да
Удаление блоков с тишиной в начале и конце        : Нет
При вычислениях CRC использовались нулевые сэмплы : Да
Интерфейс                                         : Установленный внешний ASPI-интерфейс
Выходной формат          : Пользовательский кодировщик
Выбранный битрейт        : 1024 kBit/s
Качество                 : Высокий
Добавление ID3-тега      : Нет
Утилита сжатия           : C:\Program Files (x86)\Exact Audio Copy\Flac\flac.exe
Дополнительные параметры :  -V -8 -T "Date=%year%" -T "Genre=%genre%" %source%
TOC извлечённого CD
     Трек |   Старт  | Длительность | Начальный сектор | Конечный сектор
    ---------------------------------------------------------------------
       1  |  0:00.00 |    3:00.10   |           0      |      13509
       2  |  3:00.10 |    2:49.41   |       13510      |      26225
       3  |  5:49.51 |    3:41.50   |       26226      |      42850
       4  |  9:31.26 |    4:05.41   |       42851      |      61266
       5  | 13:36.67 |    4:19.15   |       61267      |      80706
       6  | 17:56.07 |    3:48.45   |       80707      |      97851
       7  | 21:44.52 |    5:30.45   |       97852      |     122646
       8  | 27:15.22 |    3:37.25   |      122647      |     138946
       9  | 30:52.47 |    3:02.46   |      138947      |     152642
      10  | 33:55.18 |    3:48.31   |      152643      |     169773
      11  | 37:43.49 |    4:00.38   |      169774      |     187811
      12  | 41:44.12 |    3:55.72   |      187812      |     205508
      13  | 45:40.09 |    6:10.23   |      205509      |     233281
Характеристики диапазона извлечения и сообщения об ошибках
Выбранный диапазон
     Имя файла C:\Users\ Desktop\NAZARETH -  TATTOOED ON MY BRAIN 2018\Nazareth - Tattooed On My Brain.wav
     Пиковый уровень 97.7 %
     Скорость извлечения 2.0 X
     Качество диапазона 100.0 %
     CRC теста 5773CA39
     CRC копии 5773CA39
     Копирование... OK
Ошибок не произошло
AccurateRip: сводка
Трек  1  отсутствует в базе данных
Трек  2  отсутствует в базе данных
Трек  3  отсутствует в базе данных
Трек  4  отсутствует в базе данных
Трек  5  отсутствует в базе данных
Трек  6  отсутствует в базе данных
Трек  7  отсутствует в базе данных
Трек  8  отсутствует в базе данных
Трек  9  отсутствует в базе данных
Трек 10  отсутствует в базе данных
Трек 11  отсутствует в базе данных
Трек 12  отсутствует в базе данных
Трек 13  отсутствует в базе данных
Ни одного трека нет в базе AccurateRip
Конец отчёта

Индексная карта (non-compilant .cue)

Код:
REM GENRE "Hard Rock"
REM DATE 2018
REM DISCID AA0C260D
REM COMMENT "ExactAudioCopy v1.3"
PERFORMER "Nazareth"
TITLE "Tattooed On My Brain"
REM COMPOSER ""
FILE "Nazareth - Tattooed On My Brain.flac" WAVE
  TRACK 01 AUDIO
    TITLE "Never Dance With The Devil"
    PERFORMER "Nazareth"
    REM COMPOSER "Nazareth"
    INDEX 01 00:00:00
  TRACK 02 AUDIO
    TITLE "Tattooed On My Brain"
    PERFORMER "Nazareth"
    REM COMPOSER "Nazareth"
    INDEX 01 03:00:10
  TRACK 03 AUDIO
    TITLE "State Of Emergency"
    PERFORMER "Nazareth"
    REM COMPOSER "Nazareth"
    INDEX 01 05:49:51
  TRACK 04 AUDIO
    TITLE "Rubik's Romance"
    PERFORMER "Nazareth"
    REM COMPOSER "Nazareth"
    INDEX 01 09:31:26
  TRACK 05 AUDIO
    TITLE "Pole To Pole"
    PERFORMER "Nazareth"
    REM COMPOSER "Nazareth"
    INDEX 01 13:36:67
  TRACK 06 AUDIO
    TITLE "Push"
    PERFORMER "Nazareth"
    REM COMPOSER "Nazareth"
    INDEX 01 17:56:07
  TRACK 07 AUDIO
    TITLE "The Secret Is Out"
    PERFORMER "Nazareth"
    REM COMPOSER "Nazareth"
    INDEX 01 21:44:52
  TRACK 08 AUDIO
    TITLE "Don't Throw Your Love Away"
    PERFORMER "Nazareth"
    REM COMPOSER "Nazareth"
    INDEX 01 27:15:22
  TRACK 09 AUDIO
    TITLE "Crazy Molly"
    PERFORMER "Nazareth"
    REM COMPOSER "Nazareth"
    INDEX 01 30:52:47
  TRACK 10 AUDIO
    TITLE "Silent Symphony"
    PERFORMER "Nazareth"
    REM COMPOSER "Nazareth"
    INDEX 01 33:55:18
  TRACK 11 AUDIO
    TITLE "What Goes Around"
    PERFORMER "Nazareth"
    REM COMPOSER "Nazareth"
    INDEX 01 37:43:49
  TRACK 12 AUDIO
    TITLE "Change"
    PERFORMER "Nazareth"
    REM COMPOSER "Nazareth"
    INDEX 01 41:44:12
  TRACK 13 AUDIO
    TITLE "You Call Me"
    PERFORMER "Nazareth"
    REM COMPOSER "Nazareth"
    INDEX 01 45:40:09
-

для ознакомления:

--

_________________
Other forum [Profile] [PM]
Similar theme
Forum Topic Author Torrent Replies Last Post
./templates/default/images/folder_dl.gif Rock (Hard Rock) Scorpions - Best Of Rockers 'N' Ballads - Japan (PPD-1076) - 1989, APE (image+.cue), lossless Omen
0 | 1

0 | 590

0

2013-02-18 20:04
Omen Latest
./templates/default/images/folder_dl.gif Rock (Hard Rock/Heavy) One Bad Son - Black Buffalo - 2014, MP3, 320 kbps Omen
1 | 0

0 | 629

15

2014-10-02 23:00
Omen Latest
./templates/default/images/folder_dl.gif Rock (Hard Rock) [WEB] Hollywood Undead - Swan Songs [Collector’s Edition] - 2008, FLAC (tracks), lossless Omen
0 | 2

0 | 2606

0

2015-04-13 18:14
Omen Latest
./templates/default/images/folder_dl.gif Metal (Hard Rock / Heavy / Gothic Metal (Female Vocal)) Tang - Blood & Sand - 2015, MP3, 320 kbps Omen
0 | 1

0 | 822

4

2015-04-30 21:14
Omen Latest
./templates/default/images/folder_dl.gif Rock (Hard Rock) [CD] Whitesnake - The Purple Album [Deluxe Edition] - 2015, FLAC (image+.cue), lossless Omen
1 | 0

0 | 2143

18

2015-05-16 21:00
Omen Latest
./templates/default/images/folder_dl.gif Rock (Hard Rock) Nevada Beach - Read It On The Wall - 2016, MP3, 320 kbps Omen
0 | 1

0 | 854

5

2016-01-14 00:03
Omen Latest
./templates/default/images/folder_dl.gif Rock (Hard Rock / Stoner) Hurriah - Cosmosotic - 2016, MP3, 320 kbps Omen
1 | 0

0 | 783

1

2016-01-19 00:00
Omen Latest
Display posts from previous:    
Reply to topic

The time now is: Today 04:18

All times are GMT + 3 Hours



You cannot post new topics in this forum
You cannot reply to topics in this forum
You cannot edit your posts in this forum
You cannot delete your posts in this forum
You cannot vote in polls in this forum
You cannot attach files in this forum
You cannot download files in this forum