Today is a free download without charge Download

(Melodic Hard Rock) Wildness - Wildness - 2017 [FLAC, image +.cue, lossless]

Reply to topic
 
Author
Message

sergej644 ®

Gender:

Longevity: 7 years 11 months

Posts: 648

Location: Klaipeda

Торрент-статистика

Post 30-Jan-2018 18:49

[Quote]

-Wildness - Wildness--
Год издания: 2017
Страна: Sweden
Жанр: Melodic Hard Rock
Продолжительность: 00:55:48-Лейбл издания: AOR Heaven
Страна-выпуска диска: Germany
Номер по каталогу: AORH00159-Формат: FLAC
Битрейт аудио: Lossless
Тип рипа: image +.cue
Наличие сканов в содержимом раздачи: да
-

Трэклист


01. War Inside My Head (3:55)
02. Stranger (3:21)
03. Shadowland (Stay Alive) (4:37)
04. Alibi (5:09)
05. Collide (4:13)
06. Highlands (5:37)
07. Your Last Romance (3:36)
08. Down In The City (5:16)
09. Falling Down (4:11)
10. The Flame (5:34)
11. Welcome The Night (4:24)
12. Turning The Pages (5:54)
-

Лог создания рипа

Код:
Exact Audio Copy V1.2 from 12. August 2016
EAC extraction logfile from 29. January 2018, 10:11
Wildness / Wildness
Used drive  : SlimtypeDVD A  DA8AESH   Adapter: 1  ID: 0
Read mode               : Secure
Utilize accurate stream : Yes
Defeat audio cache      : Yes
Make use of C2 pointers : No
Combined read/write offset correction       : 0
Overread into Lead-In and Lead-Out          : No
Fill up missing offset samples with silence : Yes
Delete leading and trailing silent blocks   : No
Null samples used in CRC calculations       : Yes
Used interface                              : Native Win32 interface for Win NT & 2000
Used output format              : User Defined Encoder
Selected bitrate                : 1024 kBit/s
Quality                         : High
Add ID3 tag                     : No
Command line compressor         : C:\Program Files (x86)\Exact Audio Copy\FLAC\FLAC.EXE
Additional command line options : -6 -V -T "ARTIST=%artist%" -T "TITLE=%title%" -T "ALBUM=%albumtitle%" -T "DATE=%year%" -T "TRACKNUMBER=%tracknr%" -T "GENRE=%genre%" -T "COMMENT=%comment%" -T "BAND=%albuminterpret%" -T "ALBUMARTIST=%albuminterpret%" -T "COMPOSER=%composer%" %haslyrics%--tag-from-file=LYRICS="%lyricsfile%"%haslyrics% -T "DISCNUMBER=%cdnumber%" -T "TOTALDISCS=%totalcds%" -T "TOTALTRACKS=%numtracks%" %hascover%--picture="%coverfile%"%hascover% %source% -o %dest%
TOC of the extracted CD
     Track |   Start  |  Length  | Start sector | End sector
    ---------------------------------------------------------
        1  |  0:00.00 |  3:54.46 |         0    |    17595
        2  |  3:54.46 |  3:21.33 |     17596    |    32703
        3  |  7:16.04 |  4:37.13 |     32704    |    53491
        4  | 11:53.17 |  5:09.31 |     53492    |    76697
        5  | 17:02.48 |  4:13.33 |     76698    |    95705
        6  | 21:16.06 |  5:36.73 |     95706    |   120978
        7  | 26:53.04 |  3:35.58 |    120979    |   137161
        8  | 30:28.62 |  5:16.12 |    137162    |   160873
        9  | 35:44.74 |  4:11.35 |    160874    |   179733
       10  | 39:56.34 |  5:33.55 |    179734    |   204763
       11  | 45:30.14 |  4:24.01 |    204764    |   224564
       12  | 49:54.15 |  5:53.73 |    224565    |   251112
Range status and errors
Selected range
     Filename C:\EAC\Wildness - Wildness.wav
     Peak level 100.0 %
     Extraction speed 4.3 X
     Range quality 100.0 %
     Copy CRC F0902F96
     Copy OK
No errors occurred
End of status report
---- CUETools DB Plugin V2.1.6
[CTDB TOCID: GEHECYTObzhcxSPmxYn1VG38fs4-] found
Submit result: already submitted
Track | CTDB Status
  1   | (3/3) Accurately ripped
  2   | (3/3) Accurately ripped
  3   | (3/3) Accurately ripped
  4   | (3/3) Accurately ripped
  5   | (3/3) Accurately ripped
  6   | (3/3) Accurately ripped
  7   | (3/3) Accurately ripped
  8   | (3/3) Accurately ripped
  9   | (3/3) Accurately ripped
10   | (3/3) Accurately ripped
11   | (3/3) Accurately ripped
12   | (3/3) Accurately ripped

Индексная карта (non-compilant .cue)

Код:
REM GENRE "Melodic Hard Rock"
REM DATE 2017
REM DISCID A60D140C
REM COMMENT "ExactAudioCopy v1.2"
PERFORMER "Wildness"
TITLE "Wildness"
REM COMPOSER ""
FILE "Wildness - Wildness.flac" WAVE
  TRACK 01 AUDIO
    TITLE "War Inside My Head"
    PERFORMER "Wildness"
    REM COMPOSER ""
    INDEX 01 00:00:00
  TRACK 02 AUDIO
    TITLE "Stranger"
    PERFORMER "Wildness"
    REM COMPOSER ""
    INDEX 01 03:54:46
  TRACK 03 AUDIO
    TITLE "Shadowland (Stay Alive)"
    PERFORMER "Wildness"
    REM COMPOSER ""
    INDEX 01 07:16:04
  TRACK 04 AUDIO
    TITLE "Alibi"
    PERFORMER "Wildness"
    REM COMPOSER ""
    INDEX 01 11:53:17
  TRACK 05 AUDIO
    TITLE "Collide"
    PERFORMER "Wildness"
    REM COMPOSER ""
    INDEX 01 17:02:48
  TRACK 06 AUDIO
    TITLE "Highlands"
    PERFORMER "Wildness"
    REM COMPOSER ""
    INDEX 01 21:16:06
  TRACK 07 AUDIO
    TITLE "Your Last Romance"
    PERFORMER "Wildness"
    REM COMPOSER ""
    INDEX 01 26:53:04
  TRACK 08 AUDIO
    TITLE "Down In The City"
    PERFORMER "Wildness"
    REM COMPOSER ""
    INDEX 01 30:28:62
  TRACK 09 AUDIO
    TITLE "Falling Down"
    PERFORMER "Wildness"
    REM COMPOSER ""
    INDEX 01 35:44:74
  TRACK 10 AUDIO
    TITLE "The Flame"
    PERFORMER "Wildness"
    REM COMPOSER ""
    INDEX 01 39:56:34
  TRACK 11 AUDIO
    TITLE "Welcome The Night"
    PERFORMER "Wildness"
    REM COMPOSER ""
    INDEX 01 45:30:14
  TRACK 12 AUDIO
    TITLE "Turning The Pages"
    PERFORMER "Wildness"
    REM COMPOSER ""
    INDEX 01 49:54:15

Дополнительная информация

Debut Album
In Stores From November 24th, 2017
-Gabriel Lindmark - vocals
Adam Holmstrom - guitars
Pontus Skold - guitars
Erik Modin - drums
-
--

_________________
У нас все платно: родиться, учиться, жениться, лечиться, умереть.
Бесплатно разрешено только работать.
Other forum [Profile] [PM]
Similar theme
Forum Topic Author Torrent Replies Last Post
./templates/default/images/folder_dl.gif Rock (Melodic Hard Rock) Ozone - Self Defence (Japanese Edition) - 2015, MP3, 320 kbps Omen
1 | 0

0 | 1715

10

2015-10-01 00:00
Omen Latest
./templates/default/images/folder_dl.gif Rock (Melodic Hard Rock) [CD] Treat - Dreamhunter - 1987, FLAC (image+.cue), lossless Omen
1 | 0

0 | 1181

12

2015-12-17 00:32
Omen Latest
./templates/default/images/folder_dl.gif Rock (Melodic Hard Rock) Magnum - Lost On The Road To Eternity (2CD) - 2018 [FLAC, image +.cue, lossless] sergej644
1 | 0

0 | 2642

16

2018-01-27 13:58
sergej644 Latest
Display posts from previous:    
Reply to topic

The time now is: Today 02:34

All times are GMT + 3 Hours



You cannot post new topics in this forum
You cannot reply to topics in this forum
You cannot edit your posts in this forum
You cannot delete your posts in this forum
You cannot vote in polls in this forum
You cannot attach files in this forum
You cannot download files in this forum