Today is a free download without charge Download

(Melodic Hard Rock) Magnum - Lost On The Road To Eternity (2CD) - 2018 [FLAC, image +.cue, lossless]

Reply to topic
 
Author
Message

sergej644 ®

Gender:

Longevity: 8 years

Posts: 650

Location: Klaipeda

Торрент-статистика

Post 27-Jan-2018 13:58

[Quote]

-Magnum - Lost On The Road To Eternity (2CD)--
Год издания: 2018
Страна: UK
Жанр: Melodic Hard Rock
Продолжительность: 01:31:31-Лейбл издания: Steamhammer
Страна-выпуска диска: EU
Номер по каталогу: SVP 284482 2CD-Формат: FLAC
Битрейт аудио: Lossless
Тип рипа: image +.cue
Наличие сканов в содержимом раздачи: да
-

Трэклист

CD 1 | 01:06:52


01. Peaches and Cream (4:54)
02. Show Me Your Hands (5:45)
03. Storm Baby (6:13)
04. Welcome to the Cosmic Cabaret (8:08)
05. Lost on the Road to Eternity (5:54)
06. Without Love (5:55)
07. Tell Me What You've Got to Say (6:27)
08. Ya Wanna Be Someone (5:56)
09. Forbidden Masquerade (5:02)
10. Glory to Ashes (5:35)
11. King of the World (7:04)

CD 2 - Live Versions | 00:24:40


01. Sacred Blood Divine Lies (Live) (6:47)
02. Crazy Old Mothers (live) (5:36)
03. Your Dreams (Live) (5:56)
04. 12 Men Wise and Just (Live) (6:21)
-

Лог создания рипа

CD 1

Код:
Exact Audio Copy V1.3 from 2. September 2016
Отчёт EAC об извлечении, выполненном 23. января 2018, 18:59
Magnum / Lost on the Road to Eternity
Дисковод: HL-DT-STDVDRAM GU40N   Adapter: 0  ID: 1
Режим чтения                 : Достоверность
Использование точного потока : Да
Отключение кэша аудио        : Да
Использование указателей C2  : Нет
Коррекция смещения при чтении                     : 103
Способность читать области Lead-in и Lead-out     : Нет
Заполнение пропущенных сэмплов тишиной            : Да
Удаление блоков с тишиной в начале и конце        : Нет
При вычислениях CRC использовались нулевые сэмплы : Да
Интерфейс                                         : Установленный внешний ASPI-интерфейс
Выходной формат          : Пользовательский кодировщик
Выбранный битрейт        : 320 kBit/s
Качество                 : Высокий
Добавление ID3-тега      : Да
Утилита сжатия           : C:\Users\workutagin\Desktop\EZCDAudioConverter6051BALTAGY\64Bit\EZ CD Audio Converter.exe
Дополнительные параметры :  -V -8 -T "Date=%year%" -T "Genre=%genre%" %source%
TOC извлечённого CD
     Трек |   Старт  | Длительность | Начальный сектор | Конечный сектор
    ---------------------------------------------------------------------
       1  |  0:00.00 |    4:53.55   |           0      |      22029
       2  |  4:53.55 |    5:44.41   |       22030      |      47870
       3  | 10:38.21 |    6:12.67   |       47871      |      75837
       4  | 16:51.13 |    8:08.08   |       75838      |     112445
       5  | 24:59.21 |    5:54.07   |      112446      |     139002
       6  | 30:53.28 |    5:54.54   |      139003      |     165606
       7  | 36:48.07 |    6:26.66   |      165607      |     194622
       8  | 43:14.73 |    5:56.07   |      194623      |     221329
       9  | 49:11.05 |    5:01.72   |      221330      |     243976
      10  | 54:13.02 |    5:34.56   |      243977      |     269082
      11  | 59:47.58 |    7:03.69   |      269083      |     300876
Характеристики диапазона извлечения и сообщения об ошибках
Выбранный диапазон
     Имя файла C:\Users\workutagin\Desktop\Magnum - Lost on the Road to Eternity 2018\CD1\Magnum - Lost on the Road to Eternity.wav
     Пиковый уровень 98.8 %
     Скорость извлечения 2.1 X
     Качество диапазона 100.0 %
     CRC теста BE08580E
     CRC копии BE08580E
     Копирование... OK
Ошибок не произошло
AccurateRip: сводка
Трек  1  отсутствует в базе данных
Трек  2  отсутствует в базе данных
Трек  3  отсутствует в базе данных
Трек  4  отсутствует в базе данных
Трек  5  отсутствует в базе данных
Трек  6  отсутствует в базе данных
Трек  7  отсутствует в базе данных
Трек  8  отсутствует в базе данных
Трек  9  отсутствует в базе данных
Трек 10  отсутствует в базе данных
Трек 11  отсутствует в базе данных
Ни одного трека нет в базе AccurateRip
Конец отчёта
---- CUETools DB Plugin V2.1.6
[CTDB TOCID: A0HTB7e6KydAfxaRAU0km8XOzUc-] found
Submit result: A0HTB7e6KydAfxaRAU0km8XOzUc- has been confirmed
Track | CTDB Status
  1   | (38/38) Accurately ripped
  2   | (38/38) Accurately ripped
  3   | (38/38) Accurately ripped
  4   | (38/38) Accurately ripped
  5   | (38/38) Accurately ripped
  6   | (38/38) Accurately ripped
  7   | (38/38) Accurately ripped
  8   | (38/38) Accurately ripped
  9   | (38/38) Accurately ripped
10   | (38/38) Accurately ripped
11   | (38/38) Accurately ripped

CD 2

Код:
Exact Audio Copy V1.3 from 2. September 2016
Отчёт EAC об извлечении, выполненном 23. января 2018, 19:37
Magnum / Lost On The Road To Eternity (bonustracks)
Дисковод: HL-DT-STDVDRAM GU40N   Adapter: 0  ID: 1
Режим чтения                 : Достоверность
Использование точного потока : Да
Отключение кэша аудио        : Да
Использование указателей C2  : Нет
Коррекция смещения при чтении                     : 103
Способность читать области Lead-in и Lead-out     : Нет
Заполнение пропущенных сэмплов тишиной            : Да
Удаление блоков с тишиной в начале и конце        : Нет
При вычислениях CRC использовались нулевые сэмплы : Да
Интерфейс                                         : Установленный внешний ASPI-интерфейс
Выходной формат          : Пользовательский кодировщик
Выбранный битрейт        : 320 kBit/s
Качество                 : Высокий
Добавление ID3-тега      : Да
Утилита сжатия           : C:\Users\workutagin\Desktop\EZCDAudioConverter6051BALTAGY\64Bit\EZ CD Audio Converter.exe
Дополнительные параметры :  -V -8 -T "Date=%year%" -T "Genre=%genre%" %source%
TOC извлечённого CD
     Трек |   Старт  | Длительность | Начальный сектор | Конечный сектор
    ---------------------------------------------------------------------
       1  |  0:00.00 |    6:46.73   |           0      |      30522
       2  |  6:46.73 |    5:35.40   |       30523      |      55687
       3  | 12:22.38 |    5:56.13   |       55688      |      82400
       4  | 18:18.51 |    6:21.06   |       82401      |     110981
Характеристики диапазона извлечения и сообщения об ошибках
Выбранный диапазон
     Имя файла C:\Users\workutagin\Desktop\Magnum - Lost on the Road to Eternity 2018\CD2\Magnum - Lost On The Road To Eternity (bonustracks).wav
     Пиковый уровень 99.7 %
     Скорость извлечения 1.6 X
     Качество диапазона 99.9 %
     CRC теста 13DCDB3E
     CRC копии 13DCDB3E
     Копирование... OK
Ошибок не произошло
AccurateRip: сводка
Трек  1  отсутствует в базе данных
Трек  2  отсутствует в базе данных
Трек  3  отсутствует в базе данных
Трек  4  отсутствует в базе данных
Ни одного трека нет в базе AccurateRip
Конец отчёта
---- CUETools DB Plugin V2.1.6
[CTDB TOCID: T3hv0RKVeanXBae3fHlD_tLjIC8-] found
Submit result: T3hv0RKVeanXBae3fHlD_tLjIC8- has been confirmed
Track | CTDB Status
  1   | (29/29) Accurately ripped
  2   | (29/29) Accurately ripped
  3   | (29/29) Accurately ripped
  4   | (29/29) Accurately ripped

Индексная карта (non-compilant .cue)

CD 1

Код:
REM GENRE "Hard Rock"
REM DATE 2018
REM DISCID 910FAB0B
REM COMMENT "ExactAudioCopy v1.3"
PERFORMER "Magnum"
TITLE "Lost on the Road to Eternity"
REM COMPOSER "Tony Clarkin"
FILE "Magnum - Lost on the Road to Eternity.flac" WAVE
  TRACK 01 AUDIO
    TITLE "Peaches and Cream"
    PERFORMER "Magnum"
    REM COMPOSER "Tony Clarkin"
    INDEX 01 00:00:00
  TRACK 02 AUDIO
    TITLE "Show Me Your Hands"
    PERFORMER "Magnum"
    REM COMPOSER "Tony Clarkin"
    INDEX 01 04:53:55
  TRACK 03 AUDIO
    TITLE "Storm Baby"
    PERFORMER "Magnum"
    REM COMPOSER "Tony Clarkin"
    INDEX 01 10:38:21
  TRACK 04 AUDIO
    TITLE "Welcome to the Cosmic Cabaret"
    PERFORMER "Magnum"
    REM COMPOSER "Tony Clarkin"
    INDEX 01 16:51:13
  TRACK 05 AUDIO
    TITLE "Lost on the Road to Eternity"
    PERFORMER "Magnum"
    REM COMPOSER "Tony Clarkin"
    INDEX 01 24:59:21
  TRACK 06 AUDIO
    TITLE "Without Love"
    PERFORMER "Magnum"
    REM COMPOSER "Tony Clarkin"
    INDEX 01 30:53:28
  TRACK 07 AUDIO
    TITLE "Tell Me What You've Got to Say"
    PERFORMER "Magnum"
    REM COMPOSER "Tony Clarkin"
    INDEX 01 36:48:07
  TRACK 08 AUDIO
    TITLE "Ya Wanna Be Someone"
    PERFORMER "Magnum"
    REM COMPOSER "Tony Clarkin"
    INDEX 01 43:14:73
  TRACK 09 AUDIO
    TITLE "Forbidden Masquerade"
    PERFORMER "Magnum"
    REM COMPOSER "Tony Clarkin"
    INDEX 01 49:11:05
  TRACK 10 AUDIO
    TITLE "Glory to Ashes"
    PERFORMER "Magnum"
    REM COMPOSER "Tony Clarkin"
    INDEX 01 54:13:02
  TRACK 11 AUDIO
    TITLE "King of the World"
    PERFORMER "Magnum"
    REM COMPOSER "Tony Clarkin"
    INDEX 01 59:47:58

CD 2

Код:
REM GENRE "Hard Rock"
REM DATE 2017
REM DISCID 1F05C704
REM COMMENT "ExactAudioCopy v1.3"
PERFORMER "Magnum"
TITLE "Lost On The Road To Eternity (bonustracks) "
REM COMPOSER "A Clarkin"
FILE "Magnum - Lost On The Road To Eternity (bonustracks).flac" WAVE
  TRACK 01 AUDIO
    TITLE "Sacred Blood Divine Lies (Live)"
    PERFORMER "Magnum"
    REM COMPOSER "A Clarkin"
    INDEX 01 00:00:00
  TRACK 02 AUDIO
    TITLE "Crazy Old Mothers (live)"
    PERFORMER "Magnum"
    REM COMPOSER "A Clarkin"
    INDEX 01 06:46:73
  TRACK 03 AUDIO
    TITLE "Your Dreams (Live)"
    PERFORMER "Magnum"
    REM COMPOSER "A Clarkin"
    INDEX 01 12:22:38
  TRACK 04 AUDIO
    TITLE "12 Men Wise and Just (Live) "
    PERFORMER "Magnum"
    REM COMPOSER "A Clarkin"
    INDEX 01 18:18:51
--

_________________
У нас все платно: родиться, учиться, жениться, лечиться, умереть.
Бесплатно разрешено только работать.
Other forum [Profile] [PM]
Display posts from previous:    
Reply to topic

The time now is: Today 19:20

All times are GMT + 3 Hours



You cannot post new topics in this forum
You cannot reply to topics in this forum
You cannot edit your posts in this forum
You cannot delete your posts in this forum
You cannot vote in polls in this forum
You cannot attach files in this forum
You cannot download files in this forum