Today is a free download without charge Download

(Classical, opera, 20th century) Frank Martin - Der Sturm - Robert Holl, Christine Buffle, Ethan Herschenfeld, Josef Wagner, James Gilchrist, Simon O'Neill; Netherlands Radio Philharmonic Orchestra, Thierry Fischer - 2011, FLAC (image+.cue) loss

Reply to topic
 
Author
Message

Koralina ®

Longevity: 9 years 4 months

Posts: 994

Location: Lithuania

Торрент-статистика

Post 10-Dec-2011 15:32

[Quote]

Frank Martin - Der Sturm - Robert Holl, Christine Buffle, Ethan Herschenfeld, Josef Wagner, James Gilchrist, Simon O'Neill; Netherlands Radio Philharmonic Orchestra, Thierry Fischer
Жанр: Classical, opera, 20th century
Страна-производитель диска: UK
Год издания диска: 2011
Издатель (лейбл): Hyperion
Номер по каталогу: CDA67821/3
Дата записи: 2008
Аудиокодек: FLAC
Тип рипа: image+.cue
Битрейт аудио: lossless
Продолжительность: 2:32:48
Источник: собственный рип
Наличие сканов в содержимом раздачи: да
Треклист:
Frank Martin (1890–1974)
Der Sturm
Libretto by August Wilhelm von Schlegel (1767–1845)
after The Tempest by William Shakespeare (1564–1616)
CD1
[1] Overture
[2]-[4] Act I
CD2
[1]-[5] Act II
CD3
[1]-[2] Act III
[3] Epilogue
Исполнители:
Alonso Ethan Herschenfeld bass
Sebastian Josef Wagner baritone
Prospero Robert Holl bass
Antonio James Gilchrist tenor
Ferdinand Simon O’Neill tenor
Gonzalo Andreas Macco bass
Adrian Marcel Beekman tenor
Caliban Dennis Wilgenhof bass
Trinculo Roman Sadnik tenor
Stephano André Morsch baritone
Ein Schiffspatron Andreas Macco bass
Bootsmann Thomas Oliemans baritone
Miranda Christine Buffle soprano
Ariel, Matrosen Netherlands Radio Choir
Netherlands Radio Philharmonic Orchestra
Thierry Fischer conductor

Лог создания рипа: CD1

Exact Audio Copy V1.0 beta 3 from 29. August 2011
EAC extraction logfile from 5. December 2011, 17:58
Robert Holl, Christine Buffle, Etc.; Thierry Fischer: Netherlands Radio Philharmonic Orchestra / Martin - Der Sturm [Disc 1]
Used drive : Optiarc DVD+-RW AD-5170S Adapter: 1 ID: 2
Read mode : Secure
Utilize accurate stream : Yes
Defeat audio cache : Yes
Make use of C2 pointers : No
Read offset correction : 48
Overread into Lead-In and Lead-Out : No
Fill up missing offset samples with silence : Yes
Delete leading and trailing silent blocks : No
Null samples used in CRC calculations : Yes
Used interface : Native Win32 interface for Win NT & 2000
Used output format : User Defined Encoder
Selected bitrate : 896 kBit/s
Quality : High
Add ID3 tag : Yes
Command line compressor : C:\Program Files\Exact Audio Copy\Flac\flac.exe
Additional command line options : -V -8 %source%
TOC of the extracted CD
Track | Start | Length | Start sector | End sector
---------------------------------------------------------
1 | 0:00.00 | 7:35.35 | 0 | 34159
2 | 7:35.35 | 6:36.35 | 34160 | 63894
3 | 14:11.70 | 12:59.60 | 63895 | 122379
4 | 27:11.55 | 27:34.55 | 122380 | 246484
Range status and errors
Selected range
Filename D:\temp\pics\Martin - Der Sturm\Martin - Der Sturm [Disc 1].wav
Peak level 100.0 %
Extraction speed 7.1 X
Range quality 99.9 %
Test CRC F3882113
Copy CRC F3882113
Copy OK
No errors occurred
End of status report
==== Log checksum F374FCDB7968C0DD6A8B41B611373A0994413D9FCE5AF992267537A547B1D783 ====

Лог создания рипа: CD2

Exact Audio Copy V1.0 beta 3 from 29. August 2011
EAC extraction logfile from 5. December 2011, 18:19
Robert Holl, Christine Buffle, Etc.; Thierry Fischer: Netherlands Radio Philharmonic Orchestra / Martin - Der Sturm [Disc 2]
Used drive : Optiarc DVD+-RW AD-5170S Adapter: 1 ID: 2
Read mode : Secure
Utilize accurate stream : Yes
Defeat audio cache : Yes
Make use of C2 pointers : No
Read offset correction : 48
Overread into Lead-In and Lead-Out : No
Fill up missing offset samples with silence : Yes
Delete leading and trailing silent blocks : No
Null samples used in CRC calculations : Yes
Used interface : Native Win32 interface for Win NT & 2000
Used output format : User Defined Encoder
Selected bitrate : 896 kBit/s
Quality : High
Add ID3 tag : Yes
Command line compressor : C:\Program Files\Exact Audio Copy\Flac\flac.exe
Additional command line options : -V -8 %source%
TOC of the extracted CD
Track | Start | Length | Start sector | End sector
---------------------------------------------------------
1 | 0:00.00 | 14:32.37 | 0 | 65436
2 | 14:32.37 | 8:36.72 | 65437 | 104208
3 | 23:09.34 | 13:57.04 | 104209 | 166987
4 | 37:06.38 | 7:19.57 | 166988 | 199969
5 | 44:26.20 | 9:07.00 | 199970 | 240994
Range status and errors
Selected range
Filename D:\temp\pics\Martin - Der Sturm\Martin - Der Sturm [Disc 2].wav
Peak level 100.0 %
Extraction speed 7.3 X
Range quality 100.0 %
Test CRC 756473D5
Copy CRC 756473D5
Copy OK
No errors occurred
End of status report
==== Log checksum E769D080F3A159AF37150B15F243178B849D543A0C1F5A85993E06F57D650C8E ====

Лог создания рипа: CD3

Exact Audio Copy V1.0 beta 3 from 29. August 2011
EAC extraction logfile from 5. December 2011, 18:42
Robert Holl, Christine Buffle, Etc.; Thierry Fischer: Netherlands Radio Philharmonic Orchestra / Martin - Der Sturm [Disc 3]
Used drive : Optiarc DVD+-RW AD-5170S Adapter: 1 ID: 2
Read mode : Secure
Utilize accurate stream : Yes
Defeat audio cache : Yes
Make use of C2 pointers : No
Read offset correction : 48
Overread into Lead-In and Lead-Out : No
Fill up missing offset samples with silence : Yes
Delete leading and trailing silent blocks : No
Null samples used in CRC calculations : Yes
Used interface : Native Win32 interface for Win NT & 2000
Used output format : User Defined Encoder
Selected bitrate : 896 kBit/s
Quality : High
Add ID3 tag : Yes
Command line compressor : C:\Program Files\Exact Audio Copy\Flac\flac.exe
Additional command line options : -V -8 %source%
TOC of the extracted CD
Track | Start | Length | Start sector | End sector
---------------------------------------------------------
1 | 0:00.00 | 15:21.44 | 0 | 69118
2 | 15:21.44 | 24:32.51 | 69119 | 179569
3 | 39:54.20 | 4:29.44 | 179570 | 199788
Range status and errors
Selected range
Filename D:\temp\pics\Martin - Der Sturm\Martin - Der Sturm [Disc 3].wav
Peak level 94.2 %
Extraction speed 6.8 X
Range quality 100.0 %
Test CRC 313408B2
Copy CRC 313408B2
Copy OK
No errors occurred
End of status report
==== Log checksum 18E820F805439620ED6F84B3783CE8189948A346E16EB7E44964D7692B7503B8 ====

_________________
Other forum [Profile] [PM]
Display posts from previous:    
Reply to topic

The time now is: Today 11:31

All times are GMT + 3 Hours



You cannot post new topics in this forum
You cannot reply to topics in this forum
You cannot edit your posts in this forum
You cannot delete your posts in this forum
You cannot vote in polls in this forum
You cannot attach files in this forum
You cannot download files in this forum