Today is a free download without charge Download

Бахыт-компот - Незнакомые явленья (2016) [FLAC|Lossless|image + .cue] <Rock>

Reply to topic
 
Author
Message

XP1971 ®

Торрент-статистика

Post 23-Apr-2017 10:58

[Quote]

Бахыт-компот - Незнакомые явленья (2016) - Жанр: Rock
Издание: Союз Мьюзик - SZCD 1041-16
Источник: nikolai11new
Продолжительность: 00:53:59
Кодек: FLAC
Битрейт: Lossless
Тип рипа: image + .cue
Наличие сканов: Да
Треклист:
01. Асоциальное
02. Чистые девчонки
03. Незнакомые явленья
04. Небо Родины
05. Литература
06. Змеиный дом
07. Красота
08. Волнолом
09. Полупустая дискотека
10. Дьявольская месса
11. Футболка типа лифчика
12. Телочки
13. Панк / Я смотрю на курс €
14. Король "Оранжевое лето"

Отчёт EAC&#58;

Exact Audio Copy V1.0 beta 3 from 29. August 2011
Отчёт EAC об извлечении, выполненном 21. апреля 2017, 19:46
БАХЫТ-КОМПОТ / НЕЗНАКОМЫЕ ЯВЛЕНЬЯ
Дисковод: HL-DT-STDVDRAM GH24NSD0 Adapter: 0 ID: 0
Режим чтения : Достоверность
Использование точного потока : Да
Отключение кэша аудио : Да
Использование указателей C2 : Нет
Коррекция смещения при чтении : 6
Способность читать области Lead-in и Lead-out : Нет
Заполнение пропущенных сэмплов тишиной : Да
Удаление блоков с тишиной в начале и конце : Нет
При вычислениях CRC использовались нулевые сэмплы : Да
Интерфейс : Встроенный Win32-интерфейс для Win NT/2000
Выходной формат : Пользовательский кодировщик
Выбранный битрейт : 128 kBit/s
Качество : Высокий
Добавление ID3-тега : Нет
Утилита сжатия : C:\Program Files (x86)\Exact Audio Copy\Flac\flac.exe
Дополнительные параметры : -V -8 -T "Date=%year%" -T "Genre=%genre%" %source%
TOC извлечённого CD
Трек | Старт | Длительность | Начальный сектор | Конечный сектор
---------------------------------------------------------------------
1 | 0:00.00 | 3:24.65 | 0 | 15364
2 | 3:24.65 | 3:47.39 | 15365 | 32428
3 | 7:12.29 | 3:35.37 | 32429 | 48590
4 | 10:47.66 | 4:17.13 | 48591 | 67878
5 | 15:05.04 | 5:04.74 | 67879 | 90752
6 | 20:10.03 | 4:34.12 | 90753 | 111314
7 | 24:44.15 | 3:36.03 | 111315 | 127517
8 | 28:20.18 | 5:09.27 | 127518 | 150719
9 | 33:29.45 | 4:13.38 | 150720 | 169732
10 | 37:43.08 | 3:35.66 | 169733 | 185923
11 | 41:18.74 | 3:16.16 | 185924 | 200639
12 | 44:35.15 | 2:58.48 | 200640 | 214037
13 | 47:33.63 | 2:59.74 | 214038 | 227536
14 | 50:33.62 | 3:23.19 | 227537 | 242780
Характеристики диапазона извлечения и сообщения об ошибках
Выбранный диапазон
Имя файла C:\Users\Ъ\Music\БАХЫТ-КОМПОТ - НЕЗНАКОМЫЕ ЯВЛЕНЬЯ.wav
Пиковый уровень 100.0 %
Скорость извлечения 3.2 X
Качество диапазона 100.0 %
CRC теста 344A639F
CRC копии 344A639F
Копирование... OK
Ошибок не произошло
AccurateRip: сводка
Трек 1 : извлечено точно (доверие 1) [46E30C55] (AR v2)
Трек 2 : извлечено точно (доверие 1) [B04760BB] (AR v2)
Трек 3 : извлечено точно (доверие 1) [E3C25485] (AR v2)
Трек 4 : извлечено точно (доверие 1) [F3322E37] (AR v2)
Трек 5 : извлечено точно (доверие 1) [0DF01C72] (AR v2)
Трек 6 : извлечено точно (доверие 1) [B8BD05B8] (AR v2)
Трек 7 : извлечено точно (доверие 1) [3CAAC6A2] (AR v2)
Трек 8 : извлечено точно (доверие 1) [8F0ECF38] (AR v2)
Трек 9 : извлечено точно (доверие 1) [C7A88C36] (AR v2)
Трек 10 : извлечено точно (доверие 1) [9EDFF04F] (AR v2)
Трек 11 : извлечено точно (доверие 1) [43B87104] (AR v2)
Трек 12 : извлечено точно (доверие 1) [08BA7EC3] (AR v2)
Трек 13 : извлечено точно (доверие 1) [D02BB41A] (AR v2)
Трек 14 : извлечено точно (доверие 1) [BA7BD928] (AR v2)
Все треки извлечены точно
Конец отчёта
==== Контрольная сумма отчёта 40E70D30F29C993CE09673399F6D88EC52B006C92DA2FEF4EED4D21C84C460F6 ====

Cue Sheet (.cue&#41;&#58;

REM DATE 2016
REM DISCID B10CA50E
REM COMMENT "ExactAudioCopy v1.0b3"
PERFORMER "Бахыт-компот"
TITLE "Незнакомые явленья"
FILE "Бахыт-компот - Незнакомые явленья.flac" WAVE
TRACK 01 AUDIO
TITLE "Асоциальное"
PERFORMER "Бахыт-компот"
INDEX 01 00:00:00
TRACK 02 AUDIO
TITLE "Чистые девчонки"
PERFORMER "Бахыт-компот"
INDEX 01 03:24:65
TRACK 03 AUDIO
TITLE "Незнакомые явленья"
PERFORMER "Бахыт-компот"
INDEX 01 07:12:29
TRACK 04 AUDIO
TITLE "Небо Родины"
PERFORMER "Бахыт-компот"
INDEX 01 10:47:66
TRACK 05 AUDIO
TITLE "Литература"
PERFORMER "Бахыт-компот"
INDEX 01 15:05:04
TRACK 06 AUDIO
TITLE "Змеиный дом"
PERFORMER "Бахыт-компот"
INDEX 01 20:10:03
TRACK 07 AUDIO
TITLE "Красота"
PERFORMER "Бахыт-компот"
INDEX 01 24:44:15
TRACK 08 AUDIO
TITLE "Волнолом"
PERFORMER "Бахыт-компот"
INDEX 01 28:20:18
TRACK 09 AUDIO
TITLE "Полупустая дискотека"
PERFORMER "Бахыт-компот"
INDEX 01 33:29:45
TRACK 10 AUDIO
TITLE "Дьявольская месса"
PERFORMER "Бахыт-компот"
INDEX 01 37:43:08
TRACK 11 AUDIO
TITLE "Футболка типа лифчика"
PERFORMER "Бахыт-компот"
INDEX 01 41:18:74
TRACK 12 AUDIO
TITLE "Телочки"
PERFORMER "Бахыт-компот"
INDEX 01 44:35:15
TRACK 13 AUDIO
TITLE "Панк / Я смотрю на курс €"
PERFORMER "Бахыт-компот"
INDEX 01 47:33:63
TRACK 14 AUDIO
TITLE "Король Оранжевое лето"
PERFORMER "Бахыт-компот"
INDEX 01 50:33:62

Отчёт auCDtect Task manager&#58;

-----------------------
DON'T MODIFY THIS FILE
-----------------------
PERFORMER: auCDtect Task Manager, ver. 1.6.0 RC1 build 1.6.0.1
Copyright (c) 2008-2010 y-soft. All rights reserved
http://y-soft.org
ANALYZER: auCDtect: CD records authenticity detector, version 0.8.2
Copyright (c) 2004 Oleg Berngardt. All rights reserved.
Copyright (c) 2004 Alexander Djourik. All rights reserved.
FILE: Бахыт-компот - Незнакомые явленья.flac
Size: 420594652 Hash: 0CC06F2F6241248378EE9951485848D1 Accuracy: -m0
Conclusion: CDDA 100%
Signature: D061981D6EBC7CF9DD4B5AF7EB9F9D5E04EF000B
 
Display posts from previous:    
Reply to topic

The time now is: Today 02:51

All times are GMT + 3 Hours



You cannot post new topics in this forum
You cannot reply to topics in this forum
You cannot edit your posts in this forum
You cannot delete your posts in this forum
You cannot vote in polls in this forum
You cannot attach files in this forum
You cannot download files in this forum