Today is a free download without charge Download

Импровизация / Камеди Клаб / Комеди Клаб / Comedy Club (2017.03.17) SATRip (сезон 2, выпуск 10)

Reply to topic
 
Author
Message

}{@R0N ®

Longevity: 4 years 1 month

Posts: 7614

Торрент-статистика

Post 17-Mar-2017 20:52

[Quote]

Импровизация / Камеди Клаб / Комеди Клаб / Comedy Club - Телекомпания: ТНТ
Жанр: Юмор
Ведущий: Павел Воля
Описание:
«Импровизация» — это новое непредсказуемое комедийное шоу от Comedy Club Production. В нём нет сценария и всё, происходящее на сцене, придумывается участниками на ходу. Под управлением ведущего Павла Воли четыре комика и один звездный гость оказываются в самых странных ситуациях — и выбираются из них с юмором. Прежде, чем попасть на экран, четыре участника «Импровизации» (Арсений Попов, Дима Позов, Сергей Матвиенко и Антон Шастун) несколько лет совершенствовали этот формат на клубных вечеринках.
Каждый выпуск шоу разбит на части, в которых действуют свои правила: например, в одной комики должны разговаривать только вопросами, в другой — ходят с завязанными глазами по комнате с мышеловками, в третьей — шутят с электрошокерами на руках, которые бьют их током. В каждом шоу к комикам присоединяется приглашенная звезда. Только в «Импровизации» можно заставить певицу Сати Казанову выслушивать, как комики дают интервью от её лица, Ольгу Бузову — подавать реплики, как суфлер, а Мигеля угадывать, кем он был в прошлой жизни. «Импровизация» — шоу для тех, кому надоел предсказуемый юмор и кто хочет посмотреть, каково комикам на сцене без сценария и заготовленных шуток.
«Комедия импровизации — весьма распространенный формат в Европе, в Америке. В каждом вузе, в каждой школе есть импровизационная команда. При этом это традиционный жанр, он уходит корнями в итальянский театр масок», — говорит креативный продюсер шоу Стас Шеминов. Импровизация — вершина комедийного спорта, уважаемый жанр, которым мечтаю заниматься многие комики, но который требует постоянной практики. Участники «Импровизации» посвятили этому жанру несколько лет — и стали настоящими мастерами.
Релиз от: Просто_Крол
Продолжительность: ~ 00:47:23
Качество видео: SATRip
Субтитры: Отсутствуют
Видео: MPEG4, XviD, 720x400 (16:9), 25.000 fps, 1 798 Kbps (0.250 bit/pixel)
Аудио: MP3, 48.0 KHz, 2 ch, 192 Kbps, CBR

Mediainfo:

Код:
Общее
Полное имя                               : D:\[1]\Импровизация\Импровизация. Сезон 2. Выпуск 10 (2017.03.17).avi
Формат                                   : AVI
Формат/Информация                        : Audio Video Interleave
Размер файла                             : 678 Мбайт
Продолжительность                        : 47 м.
Общий поток                              : 2000 Кбит/сек
Программа кодирования                    : VirtualDubMod 1.5.10.3 | [url=http://www.virtualdub-fr.org]www.virtualdub-fr.org[/url] || (build 2550/release)
Библиотека кодирования                   : VirtualDub build 35491/release
Видео
Идентификатор                            : 0
Формат                                   : MPEG-4 Visual
Профиль формата                          : Advanced Simple@L5
Параметр BVOP формата                    : 2
Параметр QPel формата                    : Нет
Параметр GMC формата                     : Без точки перехода
Параметр матрицы формата                 : Default (H.263)
Идентификатор кодека                     : XVID
Идентификатор кодека/Подсказка           : XviD
Продолжительность                        : 47 м.
Битрейт                                  : 1798 Кбит/сек
Ширина                                   : 720 пикселей
Высота                                   : 400 пикселей
Соотношение сторон                       : 16:9
Частота кадров                           : 25,000 кадров/сек
Цветовое пространство                    : YUV
Субдискретизация насыщенности            : 4:2:0
Битовая глубина                          : 8 бит
Тип развёртки                            : Прогрессивная
Метод сжатия                             : С потерями
Бит/(Пиксели*Кадры)                      : 0.250
Размер потока                            : 610 Мбайт (90%)
Библиотека кодирования                   : XviD 1.2.1 (UTC 2008-12-04)
Аудио
Идентификатор                            : 1
Формат                                   : MPEG Audio
Версия формата                           : Version 1
Профиль формата                          : Layer 3
Режим                                    : Joint stereo
Расширение режима                        : MS Stereo
Идентификатор кодека                     : 55
Идентификатор кодека/Подсказка           : MP3
Продолжительность                        : 47 м.
Вид битрейта                             : Постоянный
Битрейт                                  : 192 Кбит/сек
Каналы                                   : 2 канала
Частота                                  : 48,0 КГц
Метод сжатия                             : С потерями
Размер потока                            : 65,1 Мбайт (10%)
Выравнивание                             : Соединение по промежуткам
Продолжительность промежутка             : 40  мс. (1,00 видеокадр)
Время предзагрузки промежутка            : 504  мс.
Библиотека кодирования                   : LAME3.99r
Настройки программы                      : -m j -V 4 -q 9 -lowpass 18.6 -b 192
Скриншоты:
       
Other forum [Profile] [PM]
Display posts from previous:    
Reply to topic

The time now is: Today 19:45

All times are GMT + 3 Hours



You cannot post new topics in this forum
You cannot reply to topics in this forum
You cannot edit your posts in this forum
You cannot delete your posts in this forum
You cannot vote in polls in this forum
You cannot attach files in this forum
You cannot download files in this forum