Сегодня идет свободное скачивание без начисления Download

Николай Ягодкин | Техника запоминания 100 иностранных слов в час (2013) DVDRip [H.264]

Ответить на тему
 
Автор
Сообщение

Omen ®

Стаж: 5 лет 9 месяцев

Сообщений: 184402

Торрент-статистика

Пост 14-Янв-2017 01:00

[Цитировать]

Техника запоминания 100 иностранных слов в час - Автор (режиссер): Николай Ягодкин
Производство: Advance club
Жанр: Иностранный язык
Описание:
Вы научитесь запоминать иностранные слова со скоростью 100 слов в час, что сократит время освоения любого языка минимум в 2-3 раза.
Вы учите иностранный язык и Вам постоянно не хватает слов?
Вы тратите на запоминание слов больше времени, чем на другие задачи?
От запоминания слов Вы не получаете удовольствия?
Сколько бы слов Вы не запомнили, через неделю без повторений в памяти половина, через год единицы.
Вы не можете запомнить за вечер 200-300 новых слов и через год вспомнить их все?
Тогда тренинг по технологии запоминания иностранных слов для Вас!
Пройдя тренинг, Вы сможете легко запоминать:
по 30-70 новых слов за одну поездку в метро
по 200 – 500 слов за вечер
по 500 – 1000 слов за целый день
Продолжительность: 08:06:02
Качество видео: DVDRip
Видео: AVC/H.264, 854х480, ~800 Kbps
Аудио: AAC, 2 ch, 128 Kbps, CBR

Mediainfo:

Код:
General
Complete name                            : C:\Torrents\Ягодкин Николай - Техника запоминания 100 иностранных слов в час (2013)\Часть 1.mp4
Format                                   : MPEG-4
Format profile                           : Base Media
Codec ID                                 : isom
File size                                : 1.19 GiB
Duration                                 : 3h 2mn
Overall bit rate                         : 937 Kbps
Writing application                      : Lavf57.58.100
Video
ID                                       : 1
Format                                   : AVC
Format/Info                              : Advanced Video Codec
Format profile                           : [url=mailto:High@L3.1]High@L3.1[/url]
Format settings, CABAC                   : Yes
Format settings, ReFrames                : 3 frames
Codec ID                                 : avc1
Codec ID/Info                            : Advanced Video Coding
Duration                                 : 3h 2mn
Bit rate                                 : 800 Kbps
Width                                    : 854 pixels
Height                                   : 480 pixels
Display aspect ratio                     : 16:9
Frame rate mode                          : Constant
Frame rate                               : 29.970 fps
Color space                              : YUV
Chroma subsampling                       : 4:2:0
Bit depth                                : 8 bits
Scan type                                : Progressive
Bits/(Pixel*Frame)                       : 0.065
Stream size                              : 1.02 GiB (85%)
Writing library                          : x264 core 118
Encoding settings                        : cabac=1 / ref=3 / deblock=1:0:0 / analyse=0x3:0x113 / me=hex / subme=7 / psy=1 / psy_rd=1.00:0.00 / mixed_ref=1 / me_range=16 / chroma_me=0 / trellis=1 / 8x8dct=1 / cqm=0 / deadzone=21,11 / fast_pskip=1 / chroma_qp_offset=-2 / threads=36 / sliced_threads=0 / nr=0 / decimate=1 / interlaced=0 / bluray_compat=0 / constrained_intra=0 / bframes=3 / b_pyramid=1 / b_adapt=1 / b_bias=0 / direct=1 / weightb=1 / open_gop=0 / weightp=2 / keyint=250 / keyint_min=25 / scenecut=40 / intra_refresh=0 / rc_lookahead=40 / rc=2pass / mbtree=1 / bitrate=800 / ratetol=1.0 / qcomp=0.60 / qpmin=0 / qpmax=69 / qpstep=4 / cplxblur=20.0 / qblur=0.5 / ip_ratio=1.41 / aq=1:1.00
Language                                 : English
Audio
ID                                       : 2
Format                                   : AAC
Format/Info                              : Advanced Audio Codec
Format profile                           : LC
Codec ID                                 : 40
Duration                                 : 3h 2mn
Duration_LastFrame                       : -1ms
Bit rate mode                            : Constant
Bit rate                                 : 128 Kbps
Channel(s)                               : 2 channels
Channel positions                        : Front: L R
Sampling rate                            : 48.0 KHz
Compression mode                         : Lossy
Stream size                              : 167 MiB (14%)
Language                                 : English

Дополнительная информация:

Гарантированный результат
Вы получите навык запоминания:
- Любых слов на любом языке. Вы сможете запомнить любое слово, значение которого на русском языке Вы знаете.
- С постоянной скоростью от 100 новых слов в час. Сколько бы слов Вы не запоминали, скорость будет постоянной. На первое, сотое и тысячное слово за одну сессию запоминания Вы потратите одинаковое время.
- В долговременную память запомнив 1000 слов, потратив на это менее 10 часов, через год, два и даже десять Вы будете помнить все эти слова! Все необходимые повторения уже включены в скорость 100 слов в час!
- Воспроизведение на уровне автоматизма вы будете вспоминать слово моментально (как русское), без использования каких-либо образов, техник и т.д.
- Воспроизведение в обе стороны, видя или слыша слово на иностранном, Вы будете сразу знать перевод, а видя или слыша слово на русском, перевод на английский будет сразу всплывать
- Со 100% точностью всего с трех повторений Вы будете воспроизводить запомненные слова с абсолютной точностью (по звучанию и значению).
У Вас получится с первого раза! Прямо на тренинге Вы запомните несколько сотен слов из разных языков: латыни, английского, итальянского и даже корейского! Вы сможете принести любой список своих слов и также быстро и легко их запомнить!
В течение месяца по часу в день Вы сможете набрать минимум 3.000 новых слов. Этот объем равносилен 2-ум школьным программам по английскому языку за 11 лет или 2-ум годам обучения на обычных курсах!
Скриншоты:
       
Вне форума [Профиль] [ЛС]
Похожие темы
Форум Тема Автор Торрент Отв. Посл. сообщение
./templates/default/images/folder_dl.gif Фантастика, фэнтези, ужасы, мистика Николай Башилов | Цикл «Косморазведчик» [3 книги] (2016) [FB2] moralis
1 | 0

0 | 1211

14

2016-03-02 20:23
moralis Последнее
./templates/default/images/folder_dl.gif Обучающее видео Николай Ягодкин | Технологии обучения и работы с информацией (2013) CamRip Omen
1 | 0

0 | 4323

27

2016-12-04 01:01
Omen Последнее
./templates/default/images/folder_dl.gif Обучающее видео Николай Ягодкин | Технологии набора словарного запаса (2013) HDRip [H.264/720p] Omen
2 | 0

1 | 2303

35

2017-01-15 14:11
Dracula Последнее
./templates/default/images/folder_dl.gif Обучающее видео Николай Ягодкин | Kypc-интeнсив «Развитие памяти и внимания» (2013) PCRec [H.264] Omen
1 | 0

0 | 1236

26

2016-12-30 01:00
Omen Последнее
./templates/default/images/folder_dl.gif Фантастика, фэнтези, ужасы, мистика Николай Побережник | Личное правосудие (2018) [FB2] }{@R0N
1 | 0

0 | 280

2

2018-06-19 18:20
}{@R0N Последнее
Показать сообщения:    
Ответить на тему

Текущее время: Сегодня 03:33

Часовой пояс: GMT + 3



Вы не можете начинать темы
Вы не можете отвечать на сообщения
Вы не можете редактировать свои сообщения
Вы не можете удалять свои сообщения
Вы не можете голосовать в опросах
Вы не можете прикреплять файлы к сообщениям
Вы не можете скачивать файлы