Today is a free download without charge Download

Секс в публичном туалете с Катариной (MyPickupGirls) [2010 г., PickUp, Outdoor, Teen, SiteRip] (Katarina)

Reply to topic
 
Author
Message

XP1971 ®

Торрент-статистика

Post 14-Jan-2017 00:31

[Quote]

-Секс в публичном туалете с Катариной -- Режиссер: N/A
Страна: Россия
Год выпуска: 2010 г.
Студия: MyPickupGirls
Жанр: PickUp, Outdoor, Teen
Продолжительность: 00:41:48
Оригинальный аудиопоток: русский-В ролях:
Katarina-Описание:
Москва никогда не спит, как и столичные пикаперы, которым страсть как хочется поглубже узнать природу женской психики и физиологии. За денежку канешна. А с таким носом, как у Катарины, у неё отродясь не было шансов даже с бомжами сцаными, а тут экий новогодний подарочек - пара не жадных кобельков. Коктейль ей купили, отодрали душевно, кулаком по пояснице во время оргазма не били, ещё и денег дали. Вот так и поверишь в новогодние чудеса. В раздаче присутствуют 75 фото Катарины до, во время и после этого самого занимательнага процесса предновогоднего мимолётнага знакомства. Присутствуют диалоги.-
Контейнер: AVI
Аудио кодек: MP3
Видео кодек: VC-1
Cубтитры: английские
Качество видео: SiteRip
Формат субтитров: hardsub (неотключаемые)
Аудио: MPEG Audio | 48.0 KHz | 2 ch | 128.0 Kbps
Видео: WMV3 | 1204х576 | 1715 Кbps | 30.0 fps | 0.097 bit/pixel

Media Info

Общее
Полное имя : Sex in public toilet with a sexy brunette (Katarina)_[/*spam*/].avi
Формат : AVI
Формат/Информация : Audio Video Interleave
Размер файла : 555 Мбайт
Продолжительность : 41 м.
Общий поток : 1857 Кбит/сек
Программа кодирования : Lavf52.84.0
Видео
Идентификатор : 0
Формат : VC-1
Идентификатор кодека : WMV3
Идентификатор кодека/Информация : Windows Media Video 9
Идентификатор кодека/Подсказка : WMV3
Продолжительность : 41 м.
Битрейт : 1715 Кбит/сек
Ширина : 1024 пикселя
Высота : 576 пикселей
Соотношение сторон : 16:9
Частота кадров : 30,000 кадров/сек
Битовая глубина : 8 бит
Метод сжатия : С потерями
Бит/(Пиксели*Кадры) : 0.097
Размер потока : 513 Мбайт (92%)
Аудио
Идентификатор : 1
Формат : MPEG Audio
Версия формата : Version 1
Профиль формата : Layer 3
Режим : Joint stereo
Расширение режима : MS Stereo
Идентификатор кодека : 55
Идентификатор кодека/Подсказка : MP3
Продолжительность : 41 м.
Вид битрейта : Постоянный
Битрейт : 128 Кбит/сек
Каналы : 2 канала
Частота : 48,0 КГц
Метод сжатия : С потерями
Размер потока : 38,3 Мбайт (7%)
Выравнивание : Соединение по промежуткам
Продолжительность промежутка : 24 мс. (0,72 видеокадр)
Время предзагрузки промежутка : 24 мс.
Библиотека кодирования : LAME3.98.4

Скринлист

Скриншоты

                             
 
Display posts from previous:    
Reply to topic

The time now is: Today 20:31

All times are GMT + 3 Hours



You cannot post new topics in this forum
You cannot reply to topics in this forum
You cannot edit your posts in this forum
You cannot delete your posts in this forum
You cannot vote in polls in this forum
You cannot attach files in this forum
You cannot download files in this forum