Today is a free download without charge Download

Тренер / Серии: 1-2 из 2 (Дмитрий Булин) [2016, Спорт, комедия, мелодрама, HDTVRip]

Reply to topic
 
Author
Message

Omen ®

Longevity: 7 years 1 month

Posts: 181090

Торрент-статистика

Post 07-Jan-2017 01:01

[Quote]

Тренер
- Год выпуска: 2016
Производство: Арт Пикчерс
Жанр: Спорт, комедия, мелодрама
Продолжительность: 00:46:00
Субтитры: нет-Режиссёр: Дмитрий Булин-В ролях: Евгений Воловенко, Пётр Винс, Кристина Брыкова, Оксана Гуляева, Анастасия Лапина, Дмитрий Гудочкин-Описание: Выдающийся тренер по бегу Вячеслав Красинский из-за конфликта со своим лучшим учеником-чемпионом уходит с тренерской работы, хлопнув дверью. И теперь единственный способ для Виктора вернуться обратно – подготовить к марафону хулиганистую 12-летнюю девчонку, дочь видного бизнесмена. В обмен на эту услугу бизнесмен благодаря своему влиянию и связям в спортивной федерации обещает Красинскому вернуть его на прежнее место. Герою приходится не только улучшать результаты девочки на беговой дорожке, но и помогать ей преодолевать трудности школьного возраста. Сначала нехотя, он втягивается в переживания девочки, и это позволяет ему понять, что спорт – лишь часть жизни, которая не может заменить всё остальное.-Сэмпл-Релиз от: -Качество: HDTVRip
Формат: AVI
Видео кодек: XviD
Аудио кодек: AC3
Видео: 720x400 (16:9), 25.000 fps, XviD build 73, 1578 Kbps, 0.21 Bits/Pixel
Аудио: 48 kHz, AC3 Dolby Digital, 2 ch, 192 Kbps-Реклама: Нет-

MI

General
Complete name : Downloads\Trener.2016.HDTVRip.Files-x\01.Trener.2016.HDTVRip.Files-x.avi
Format : AVI
Format/Info : Audio Video Interleave
File size : 600 MiB
Duration : 47mn 8s
Overall bit rate : 1 780 Kbps
Writing application : VirtualDubMod 1.5.10.3 | www.virtualdub-fr.org || (build 2550/release)
Writing library : VirtualDubMod build 2550/release
Video #0
ID : 0
Format : MPEG-4 Visual
Format profile : Advanced Simple@L5
Format settings, BVOP : 1
Format settings, QPel : No
Format settings, GMC : No warppoints
Format settings, Matrix : Custom
Codec ID : XVID
Codec ID/Hint : XviD
Duration : 47mn 8s
Bit rate : 1 578 Kbps
Width : 720 pixels
Height : 400 pixels
Display aspect ratio : 16:9
Frame rate : 25.000 fps
Color space : YUV
Chroma subsampling : 4:2:0
Bit depth : 8 bits
Scan type : Progressive
Compression mode : Lossy
Bits/(Pixel*Frame) : 0.219
Stream size : 532 MiB (89%)
Writing library : XviD 73
Audio #1
ID : 1
Format : AC-3
Format/Info : Audio Coding 3
Mode extension : CM (complete main)
Format settings, Endianness : Big
Codec ID : 2000
Duration : 47mn 8s
Bit rate mode : Constant
Bit rate : 192 Kbps
Channel(s) : 2 channels
Channel positions : Front: L R
Sampling rate : 48.0 KHz
Bit depth : 16 bits
Compression mode : Lossy
Stream size : 64.7 MiB (11%)
Alignment : Split accross interleaves
Interleave, duration : 40 ms (1.00 video frame)
Interleave, preload duration : 500 ms

Скриншоты

Other forum [Profile] [PM]
Display posts from previous:    
Reply to topic

The time now is: Today 09:16

All times are GMT + 3 Hours



You cannot post new topics in this forum
You cannot reply to topics in this forum
You cannot edit your posts in this forum
You cannot delete your posts in this forum
You cannot vote in polls in this forum
You cannot attach files in this forum
You cannot download files in this forum