Today is a free download without charge Download

Криминолог / Серии: 1-16 из 16 (Евгений Чернышев) [2016, криминал, драма, WEBRip (720p)]

Reply to topic
 
Author
Message

Omen ®

Longevity: 7 years 9 months

Posts: 181087

Торрент-статистика

Post 15-Dec-2016 01:00

[Quote]

Криминолог- -Год выпуска: 2016
Производство: ТОВ ''МК ТРК''
Жанр: криминал, драма
Продолжительность: 00:45:00
Субтитры: нет-Режиссёр: Евгений Чернышев-В ролях:
Елизавета Майская, Олег Дидык, Владимир Шаповалов-Описание:
В центре сюжета трое главных персонажей, которые постоянно находятся в круговерти детективных событий. Они мастера своего дела и виртуозно раскрывают даже самые загадочные и на первый взгляд безнадежные преступления. Честный, неподкупный полицейский Петрович, который всегда славится принципиальностью и непримиримостью к врагам. Любой преступник знает, что если попадет в руки Петровича, то тюрьмы не миновать. Законопослушный вор по кличке Лорд противоречивая натура тоже борется за торжество справедливости и всегда ориентируется на то, что преступник должен сидеть в тюрьме. И наконец, третий участник этой небольшой команды детективов - это Криминолог Анна, которая всегда руководствуется фактами и строит логическую цепочку преступления. Все вместе детективы сериала Криминолог мощное и опасное оружие против злоумышленников и преступников разных мастей.--Возраст: 16+-Качество: WEBRip (720p)
Формат: MKV
Видео кодек: AVC
Аудио кодек: AC3

Видео: AVC, 1280 x 720 (16:9), 25,000 кадр/сек, 1393 Кбит/сек, 0.060 bit/pixel
Аудио: AC3, 44100 Hz, 192 Kbps, 2 канала
-

MediaInfo

Общее
Уникальный идентификатор : 196292555810417077974680678567698133482 (0x93AC92343C6C2B96BB959FE1EF7671EA)
Полное имя : D:\Раздачи\Криминолог (1 сезон 1-16 серии из 16) WEB-DL (720p)\01.mkv
Формат : Matroska
Версия формата : Version 2
Размер файла : 529 Мбайт
Продолжительность : 45 м. 41 с.
Общий поток : 1617 Кбит/сек
Дата кодирования : UTC 2016-11-22 23:51:41
Программа кодирования : mkvmerge v4.4.0 ('Die Wiederkehr') built on Oct 31 2010 21:52:48
Библиотека кодирования : libebml v1.0.0 + libmatroska v1.0.0 / Lavf57.14.100
Видео
Идентификатор : 1
Формат : AVC
Формат/Информация : Advanced Video Codec
Профиль формата : Main@L3.1
Параметр CABAC формата : Да
Параметр ReFrames формата : 3 кадра
Идентификатор кодека : V_MPEG4/ISO/AVC
Продолжительность : 45 м. 41 с.
Битрейт : 1393 Кбит/сек
Ширина : 1280 пикселей
Высота : 720 пикселей
Соотношение сторон : 16:9
Режим частоты кадров : Постоянный
Частота кадров : 25,000 кадров/сек
Цветовое пространство : YUV
Субдискретизация насыщенности : 4:2:0
Битовая глубина : 8 бит
Тип развёртки : Прогрессивная
Бит/(Пиксели*Кадры) : 0.060
Размер потока : 455 Мбайт (86%)
Default : Да
Forced : Нет
Дата кодирования : UTC 2016-11-22 12:38:50
Цветовой диапазон : Limited
Основные цвета : BT.709
Характеристики трансфера : BT.709
Коэффициенты матрицы : BT.709
DURATION : 00:45:41.280000000
HANDLER_NAME : ISO Media file produced by Google Inc.
Аудио
Идентификатор : 2
Формат : AC-3
Формат/Информация : Audio Coding 3
Расширение режима : CM (complete main)
Параметр Endianness формата : Big
Идентификатор кодека : A_AC3
Продолжительность : 45 м. 41 с.
Вид битрейта : Постоянный
Битрейт : 192 Кбит/сек
Каналы : 2 канала
Расположение каналов : Front: L R
Частота : 48,0 КГц
Частота кадров : 31,250 кадров/сек (1536 spf)
Метод сжатия : С потерями
Размер потока : 62,7 Мбайт (12%)
Default : Да
Forced : Да
-

Скриншоты сериала


-Раздаю до первых 5-ти скачавших, на раздачи не возвращаюсь...-
Other forum [Profile] [PM]
Similar theme
Forum Topic Author Torrent Replies Last Post
./templates/default/images/folder_dl.gif Фильмы 2011-2020 Встреча со злом / Абсолютное зло / / Meeting Evil (Крис Фишер) [2011 г., триллер, драма, криминал, детектив, HDRip] DeadMmau5
0 | 1

0 | 805

3

2012-10-14 23:30
DeadMmau5 Latest
./templates/default/images/folder_dl.gif Отечественные cериалы Меч 2 (Пролог + Серии 01—20 из 20) (Алексей Луканев) [2015, криминал, SATRip] DED
1 | 0

0 | 1815

38

2015-06-15 18:54
DED Latest
./templates/default/images/folder_dl.gif Отечественные cериалы Горячая точка (Денис Карро) [Серии 1–24 из 24] [2019/2020, криминальная драма, WEBRip 720p] DED
1 | 0

0 | 727

1

2020-03-06 16:59
DED Latest
./templates/default/images/folder_dl.gif Зарубежное кино (HD Video) Три секунды / The Informer (Андреа Ди Стефано) [2019, Триллер, криминал, боевик, BDRip 720p] Dub (iTunes) + Original + Sub (Eng) Kon912
1 | 0

0 | 345

0

2020-06-25 21:50
Kon912 Latest
./templates/default/images/folder_dl.gif Новинки (BD|HDTV|DVD) Бесшумный / The Silencing (Робин Пронт) [2020 г., Боевик, триллер, криминал, WEBRip 1080p] MVO (HDRezka Studio) Theseus
1 | 0

1 | 725

0

2020-07-22 11:47
Theseus Latest
Display posts from previous:    
Reply to topic

The time now is: Today 22:56

All times are GMT + 3 Hours



You cannot post new topics in this forum
You cannot reply to topics in this forum
You cannot edit your posts in this forum
You cannot delete your posts in this forum
You cannot vote in polls in this forum
You cannot attach files in this forum
You cannot download files in this forum