Today is a free download without charge Download

Война Принцессы (Владимир Алеников) [2013, Россия, драма, HDTV 1080i]

Reply to topic
 
Author
Message

Omen ®

Longevity: 7 years 2 months

Posts: 181087

Торрент-статистика

Post 12-Dec-2016 01:00

[Quote]

Война Принцессы- -Страна: Россия
Жанр: драма
Год выпуска: 2013
Производство: «BFI (Bright Future International)»
Продолжительность: 01:30:09
Оригинальная аудиодорожка: русский
Cубтитры: нет-Режиссер: Владимир Алеников-В ролях:
Екатерина Черепухина, Юрий Вотяков, Арам Геворкян, Лянка Грыу, Глюк'oza, Артур Смольянинов, Пётр Ульянов-Описание:
Подмосковный городок Росрентген в начале 1990-х разделен на части двумя подростковыми бандами: местными — «рентгенами» и приезжими, главным образом, беженцами с Кавказа — «абреками».
Русская девчонка по кличке Принцесса и армянский паренек Карен влюбляются друг в друга. Теперь им предстоит отстаивать свою любовь с оружием в руках, вопреки атмосфере вражды и жестокости, царящей вокруг.-Доп.информация:
Существует фильм Триумф. Производство: Киностудия им. М.Горького, Одесская киностудия 2000г. Снятый режисёром Олегом Погодиным. В основу фильма лёг материал, отснятый режиссёром Владимиром Алениковым и оператором Максимом Осадчим для фильма «Война Принцессы». Однако из-за конфликта между продюсером Александром Элиасбергом и Алениковым работа над этим фильмом не была доведена до конца.На основе снятого материала и собственных досъемок другой режиссер — Олег Погодин — создал свой фильм о мальчике-наркодельце, получивший название «Триумф». Фильм «Триумф» никогда не был приобретён ни телевидением, ни кинопрокатом.-Возраст: 18+-Качество: HDTV (1080i)
Формат: TS
Видео кодек: AVC
Аудио кодек: AC3, MPEG Audio 2

Видео: AVC, 1920 х 1080 (16:9), 25,000 кадр/сек, 9276 Кбит/сек, 0.179 bit/pixel
Аудио 1: AC3, 48000 Hz, 448 Kbps, 6 каналов
Аудио 2: MPEG Audio 2, 48000 Hz, 192 Kbps, 2 канала
-

MediaInfo

Общее
Идентификатор : 1 (0x1)
Полное имя : D:\Раздачи\Война Принцессы HDTV (1080i)\Война Принцессы HDTV (1080i).ts
Формат : MPEG-TS
Размер файла : 6,57 Гбайт
Продолжительность : 1 ч. 30 м.
Режим общего битрейта : Переменный
Общий поток : 10,4 Мбит/сек
Видео
Идентификатор : 3551 (0xDDF)
Идентификатор меню : 17015 (0x4277)
Формат : AVC
Формат/Информация : Advanced Video Codec
Профиль формата : Main@L4
Параметр CABAC формата : Да
Параметр ReFrames формата : 4 кадра
Параметр GOP формата : M=1, N=32
Идентификатор кодека : 27
Продолжительность : 1 ч. 30 м.
Битрейт : 9276 Кбит/сек
Ширина : 1920 пикселей
Высота : 1080 пикселей
Соотношение сторон : 16:9
Частота кадров : 25,000 кадров/сек
Цветовое пространство : YUV
Субдискретизация насыщенности : 4:2:0
Битовая глубина : 8 бит
Тип развёртки : Чересстрочная
Метод сохранения типа развёртки : Раздельные поля
Порядок развёртки : Верхнее поле первое
Бит/(Пиксели*Кадры) : 0.179
Размер потока : 5,84 Гбайт (89%)
Цветовой диапазон : Limited
Основные цвета : BT.709
Характеристики трансфера : BT.709
Коэффициенты матрицы : BT.709
Аудио #1
Идентификатор : 3552 (0xDE0)
Идентификатор меню : 17015 (0x4277)
Формат : AC-3
Формат/Информация : Audio Coding 3
Расширение режима : CM (complete main)
Параметр Endianness формата : Big
Идентификатор кодека : 6
Продолжительность : 1 ч. 30 м.
Вид битрейта : Постоянный
Битрейт : 448 Кбит/сек
Каналы : 6 каналов
Расположение каналов : Front: L C R, Side: L R, LFE
Частота : 48,0 КГц
Частота кадров : 31,250 кадров/сек (1536 spf)
Метод сжатия : С потерями
Размер потока : 289 Мбайт (4%)
Язык : Russian
Аудио #2
Идентификатор : 3553 (0xDE1)
Идентификатор меню : 17015 (0x4277)
Формат : MPEG Audio
Версия формата : Version 1
Профиль формата : Layer 2
Идентификатор кодека : 3
Продолжительность : 1 ч. 30 м.
Вид битрейта : Постоянный
Битрейт : 192 Кбит/сек
Каналы : 2 канала
Частота : 48,0 КГц
Метод сжатия : С потерями
Размер потока : 124 Мбайт (2%)
Язык : Russian

Скриншоты


-Раздаю до первых 5-ти скачавших, на раздачи не возвращаюсь...-
Other forum [Profile] [PM]
Display posts from previous:    
Reply to topic

The time now is: Today 11:14

All times are GMT + 3 Hours



You cannot post new topics in this forum
You cannot reply to topics in this forum
You cannot edit your posts in this forum
You cannot delete your posts in this forum
You cannot vote in polls in this forum
You cannot attach files in this forum
You cannot download files in this forum