Today is a free download without charge Download

Алиса в Зазеркалье в 3Д / Alice Through the Looking Glass 3D (Джеймс Бобин / James Bobin) [2016, Фэнтези, Приключения, Семейный, BDrip] Half OverUnder / Вертикальная анаморфная стереопара

Reply to topic
 
Author
Message

Omen ®

Longevity: 7 years 1 month

Posts: 181090

Торрент-статистика

Post 08-Dec-2016 01:01

[Quote]

-Алиса в Зазеркалье
Alice Through the Looking Glass
- Год выпуска: 2016
Страна: США, Великобритания (Walt Disney Pictures)
Жанр: Фэнтези, Приключения, Семейный
Продолжительность: 01:52:58
Перевод: Профессиональный дублированный (Лицензия)
Режиссер: Джеймс Бобин / James Bobin
Продюсер: Тим Бёртон / Tim Burton-Роли исполняли (дублировали):

Alice Kingsleigh - Миа Васиковска (Ангелина Миримская)
Hatter Tarrant Hightopp - Джонни Депп (Александр Баргман)
Iracebeth - Хелена Бонем Картер (Елена Морозова)
Mirana - Энн Хэтэуэй (Ирина Денисова)
Time - Саша Барон Коэн (Денис Некрасов)
Zanik Hightopp - Рис Иванс (Иван Агапов)
Tweedledee / Tweedledum - Мэтт Лукас (Сергей Фролов)
Helen Kingsleigh - Линдси Дункан (Фекла Толстая)
Hamish - Лео Билл (Олег Соколов)
Lady Ascot - Джеральдин Джеймс (Юлия Баранчук)
Dr. Addison Bennett - Эндрю Скотт (Даниил Эльдаров)
Absolem (озвучка) - Алан Рикман (Илья Любимов)
Mallymkun (озвучка) - Барбара Уиндсор (Марина Неёлова)
McTwisp (озвучка) - Майкл Шин (Сергей Маковецкий)
-Описание: На этот раз Алисе предстоит отправиться в путешествие во времени, полное неожиданностей и ярких открытий, чтобы спасти своего друга, Безумного Шляпника.

Знаете ли вы, что...

  • Рис Иванс, который играет отца Безумного Шляпника, на четыре года моложе Джонни Деппа, исполнившего роль его сына.
  • Первое появление Саши Барона Коэна в фильмах компании «Walt Disney».
  • Очередной проект, в котором принимают участие Саша Барон Коэн и режиссёр Джеймс Бобин. Они вместе работали над фильмом «Али Джи» и придумывали для него персонажи.
  • Последняя роль Алана Рикмана (1946-2016).
  • Рис Иванс и Стивен Фрай играли брата Шерлока Холмса по имени Майкрофт: Иванс в телесериале «Элементарно», Фрай — в фильме Гая Ричи 2011 года «Шерлок Холмс: Игра теней».
  • Саша Барон Коэн, который сыграл Время, и Мэтт Лукас, исполнитель ролей Труляля и Траляля, играли Тенардье в разных экранизациях «Отверженных» — Коэн в драматическом мюзикле Тома Хупера (2012), а Лукас — на концерте в 2010 году, посвящённом 25-летию выхода на экраны фильма Клода Лелуша с Жаном-Полем Бельмондо в главной роли.
  • Последняя роль в кино Алана Рикмана, который скончался за четыре месяца до премьеры. Рикман сыграл бабочку, которая в фильме Тима Бёртона «Алиса в Стране чудес» (2010) была ещё гусеницей.
  • Седьмой и последний фильм, в котором вместе снялись Алан Рикман и Хелена Бонем-Картер.
  • Джонни Депп, Хелена Бонем-Картер, Алан Рикман, Саша Барон Коэн и Тимоти Сполл играли в фильме Тима Бёртона «Суинни Тодд, демон-парикмахер с Флит-стрит» (2007).
  • Девятый совместный фильм Тима Бёртона и Джонни Деппа. Актёр снимался в фильмах «Эдвард Руки-ножницы» (1990), «Эд Вуд» (1994), «Сонная лощина» (1999), «Чарли и шоколадная фабрика» (2005), «Труп невесты» (2005), «Суинни Тодд, демон-парикмахер с Флит-стрит» (2007), «Алиса в Стране чудес» (2010) и «Мрачные тени» (2012).
  • Кинокомпания «Walt Disney Studios Motion Pictures» посвятила фильм памяти актёра Алана Рикмана.
  • В фильме занято четыре актёра, игравшие в фильмах о Шерлоке Холмсе. Эндрю Скотт сыграл Джеймса Мориарти в телесериале «Шерлок», снятом для канала«BBC Wales» (2010), там же в одной из серий роль леди Смолвуд сыграла Линдси Дункан, Рис Иванс исполнил роль Майкрофта Холмса в телесериале «Элементарно» (2012), а Стивен Фрай сыграл эту роль в детективном боевике Гая Ричи «Шерлок Холмс: Игра теней» (2011).
  • Работа над фильмом была завершена 26 января 2015 года.

    Осторожно, следующий факт содержит спойлер!

    Время в исполнении Саши Барона Коэна дарит Ирацибетте в исполнении Хелены Бонэм-Картер механическое устройство, изображающее казнь через отсечение головы. Юмор ситуации можно усмотреть в том, что первой главной ролью актрисы в кинематографе была роль леди Джейн в одноимённой исторической драме Тревора Нанна (1986), где её героиню обезглавили по обвинению в государственной измене.
Премьера: 10 мая 2016 (26 мая 2016)
Бюджет: $170 000 000
Кассовые сборы: $298 803 872

.
За исходный BD 3D Remux спасибо и BlurayDude!
-Качество: BDRip (by Ash61)
Контейнер: MKV
Формат 3D: Half OverUnder / Вертикальная анаморфная стереопара
Порядок ракурсов: левый ракурс первый-Видео: AVC / 1920х1080p / 23,976 fps / 18.3 Mbps
Аудио:
#1 - Русский / AC3 / 48 KHz / 5.1 ch / 640 Kbps (Дубляж - BD CEE)
#2 - Украинский / AC3 / 48 KHz / 5.1 ch / 640 Kbps (Дубляж) [спасибо Hurtom]
#3 - Английский / AC3 / 48 KHz / 5.1 ch / 640 Kbps (Original - BD 3D)
Субтитры (SRT):
Вшитые (softsub):
#1 - Русские Форсированные расширенные [v. Ash61] (включены по умолчанию)
#2 - Русские Полные
#3 - Украинские Форсированные расширенные [v. Ash61]
#4 - English Forced
#5 - English Full
Внешние (UTF-8):
#1 - Русские Форсированные расширенные [v. Ash61] (включены по умолчанию)
#2 - Украинские Форсированные расширенные [v. Ash61]

MediaInfo

General
Unique ID : 239826391177396326120757513317355419445 (0xB46CE200A434B99FADCA71366C38F735)
Complete name : E:\Alice2(2016)3D-halfOU(Ash61)\Alice2(2016)3D-halfOU(Ash61).mkv
Format : Matroska
Format version : Version 2
File size : 16.3 GiB
Duration : 1h 52mn
Overall bit rate : 20.6 Mbps
Movie name : Алиса в Зазеркалье / Alice Through the Looking Glass (2016) в 3Д
Encoded date : UTC 2016-10-05 17:17:11
Writing application : mkvmerge v5.8.0 ('No Sleep / Pillow') built on Sep 2 2012 15:37:04
Writing library : libebml v1.2.3 + libmatroska v1.3.0
Video
ID : 1
Format : AVC
Format/Info : Advanced Video Codec
Format profile : High@L4.1
Format settings, CABAC : Yes
Format settings, ReFrames : 4 frames
Codec ID : V_MPEG4/ISO/AVC
Duration : 1h 52mn
Bit rate : 18.3 Mbps
Width : 1 920 pixels
Height : 1 080 pixels
Display aspect ratio : 16:9
Frame rate mode : Constant
Frame rate : 23.976 fps
Color space : YUV
Chroma subsampling : 4:2:0
Bit depth : 8 bits
Scan type : Progressive
Bits/(Pixel*Frame) : 0.368
Stream size : 14.4 GiB (89%)
Title : BDRip by Ash61
Writing library : x264 core 146 r2538 121396c
Encoding settings : cabac=1 / ref=4 / deblock=1:-3:-3 / analyse=0x3:0x113 / me=umh / subme=10 / psy=1 / psy_rd=1.00:0.00 / mixed_ref=1 / me_range=32 / chroma_me=1 / trellis=2 / 8x8dct=1 / cqm=0 / deadzone=21,11 / fast_pskip=1 / chroma_qp_offset=-2 / threads=12 / lookahead_threads=3 / sliced_threads=0 / nr=0 / decimate=1 / interlaced=0 / bluray_compat=0 / constrained_intra=0 / bframes=10 / b_pyramid=2 / b_adapt=2 / b_bias=0 / direct=3 / weightb=1 / open_gop=0 / weightp=2 / keyint=250 / keyint_min=23 / scenecut=40 / intra_refresh=0 / rc_lookahead=60 / rc=crf / mbtree=1 / crf=15.0 / qcomp=0.70 / qpmin=0 / qpmax=69 / qpstep=4 / vbv_maxrate=40000 / vbv_bufsize=30000 / crf_max=0.0 / nal_hrd=none / filler=0 / frame-packing=4 / ip_ratio=1.40 / aq=1:0.70
Language : English
Default : Yes
Forced : No
Audio #1
ID : 2
Format : AC-3
Format/Info : Audio Coding 3
Mode extension : CM (complete main)
Format settings, Endianness : Big
Codec ID : A_AC3
Duration : 1h 52mn
Bit rate mode : Constant
Bit rate : 640 Kbps
Channel(s) : 6 channels
Channel positions : Front: L C R, Side: L R, LFE
Sampling rate : 48.0 KHz
Bit depth : 16 bits
Compression mode : Lossy
Stream size : 517 MiB (3%)
Title : Дубляж - BD CEE
Language : Russian
Default : Yes
Forced : No
Audio #2
ID : 3
Format : AC-3
Format/Info : Audio Coding 3
Mode extension : CM (complete main)
Format settings, Endianness : Big
Codec ID : A_AC3
Duration : 1h 52mn
Bit rate mode : Constant
Bit rate : 640 Kbps
Channel(s) : 6 channels
Channel positions : Front: L C R, Side: L R, LFE
Sampling rate : 48.0 KHz
Bit depth : 16 bits
Compression mode : Lossy
Stream size : 517 MiB (3%)
Title : Дубляж (Hurtom)
Language : Ukrainian
Default : No
Forced : No
Audio #3
ID : 4
Format : AC-3
Format/Info : Audio Coding 3
Mode extension : CM (complete main)
Format settings, Endianness : Big
Codec ID : A_AC3
Duration : 1h 52mn
Bit rate mode : Constant
Bit rate : 640 Kbps
Channel(s) : 6 channels
Channel positions : Front: L C R, Side: L R, LFE
Sampling rate : 48.0 KHz
Bit depth : 16 bits
Compression mode : Lossy
Stream size : 517 MiB (3%)
Title : Original - BD 3D
Language : English
Default : No
Forced : No
Text #1
ID : 5
Format : UTF-8
Codec ID : S_TEXT/UTF8
Codec ID/Info : UTF-8 Plain Text
Title : Форсированные (вер.Ash61)
Language : Russian
Default : Yes
Forced : No
Text #2
ID : 6
Format : UTF-8
Codec ID : S_TEXT/UTF8
Codec ID/Info : UTF-8 Plain Text
Title : Полные
Language : Russian
Default : No
Forced : No
Text #3
ID : 7
Format : UTF-8
Codec ID : S_TEXT/UTF8
Codec ID/Info : UTF-8 Plain Text
Title : Форсированные (вер.Ash61)
Language : Ukrainian
Default : No
Forced : No
Text #4
ID : 8
Format : UTF-8
Codec ID : S_TEXT/UTF8
Codec ID/Info : UTF-8 Plain Text
Title : Forced
Language : English
Default : No
Forced : No
Text #5
ID : 9
Format : UTF-8
Codec ID : S_TEXT/UTF8
Codec ID/Info : UTF-8 Plain Text
Title : Full
Language : English
Default : No
Forced : No
Menu
00:00:00.000 : : 1. Navigating The Wonder
00:04:33.189 : : 2. Return Home
00:07:24.235 : : 3. Canceled Plans
00:12:07.434 : : 4. Through The Looking Glass
00:16:39.789 : : 5. Old Friends
00:22:47.615 : : 6. Chronosphere
00:24:59.623 : : 7. Time's Castle
00:30:18.232 : : 8. The Grand Clock
00:35:29.793 : : 9. Arrival Of The Red Queen
00:41:32.989 : : 10. Ocean Of Time
00:45:20.050 : : 11. Coronation
00:51:35.675 : : 12. Warning The Hatter
00:54:11.039 : : 13. Tea Party With Time
00:57:40.123 : : 14. Tart Trouble
01:04:18.521 : : 15. "The Stroke Of Six"
01:09:18.988 : : 16. Escape From The Asylum
01:12:46.278 : : 17. Horunvendush Day
01:18:07.390 : : 18. Red Queen's Lair
01:23:20.244 : : 19. Changing The Past
01:27:34.748 : : 20. Running Out Of Time
01:32:15.947 : : 21. Family Reunion
01:36:40.461 : : 22. Goodbyes
01:40:12.588 : : 23. Setting Sail
01:43:14.813 : : 24. End Credits

Для оценки 3Д - Анимированные скрины















5.10.2016. Релиз обновлён - русская дорога iTunes заменена на лицензию.
Желающие, скачайте заново торрент-файл.
Other forum [Profile] [PM]
Display posts from previous:    
Reply to topic

The time now is: Today 05:26

All times are GMT + 3 Hours



You cannot post new topics in this forum
You cannot reply to topics in this forum
You cannot edit your posts in this forum
You cannot delete your posts in this forum
You cannot vote in polls in this forum
You cannot attach files in this forum
You cannot download files in this forum