Today is a free download without charge Download

Освобождение / Фильмы 1-5 (Юрий Озеров) [Remastered Edition] [1968-1971, СССР, драма, мелодрама, военный, BDRemux 1080p] [GER Transfer] + Original Rus

Reply to topic
 
Author
Message

Omen ®

Longevity: 7 years 1 month

Posts: 181090

Торрент-статистика

Post 05-Dec-2016 01:00

[Quote]

Освобождение / Фильмы 1-5 [GER Transfer]
Страна: СССР
Жанр: драма, мелодрама, военный
Год выпуска: 1968-1971
Продолжительность:01:31:35 + 01:28:37 + 02:10:38 + 01:26:07 + 01:13:37-Перевод: Не требуется
Cубтитры: нет
Оригинальная аудиодорожка: русский-Режиссер: Юрий Озеров-В ролях: Михаил Ульянов, Николай Олялин, Лариса Голубкина, Фриц Диц, Петер Штурм, Юрий Каморный, Бухути Закариадзе, Владлен Давыдов, Виктор Авдюшко, Владислав Стржельчик, Владимир Заманский, Николай Рыбников, Барбара Брыльска
Описание: Масштабная историческая киноэпопея Юрия Озерова «Освобождение» состоит из пяти фильмов.-Тип релиза: BDRemux 1080p
Контейнер: BDAV
-
-Фильм первый. "Огненная Дуга"
Длительность 01:31:35
«Огненная Дуга» повествует о грандиозной битве на Курской дуге летом 1943 года. Здесь произошло самое крупное в истории Второй мировой войны танковое сражение. Наряду с личными судьбами героев в фильме показаны батальные сцены, деятельность штабов и разведок, тех, кто трудился на фронте и в тылу.
Видео: MPEG-4 AVC Video 30913 kbps 1080p / 24 fps / 16:9 / High Profile 4.1
Аудио: Dolby Digital Audio Russian 224 kbps 2.0 / 48 kHz / 224 kbps / DN -4dB
-
-Фильм второй. "Прорыв"
Длительность 01:28:37
«Прорыв» посвящен битве за Днепр и наступательной операции советских войск в 1944 г. В центре этого фильма судьба батальона, сражавшегося на этом плацдарме.
Видео: MPEG-4 AVC Video 30578 kbps 1080p / 24 fps / 16:9 / High Profile 4.1
Аудио: Dolby Digital Audio Russian 224 kbps 2.0 / 48 kHz / 224 kbps / DN -4dB
-
-Фильм третий. "Направление главного удара"
Длительность 02:10:38
«Направление главного удара» посвящен операции «Багратион», в результате которой была полностью освобождена от фашистских войск Белоруссия, и войска Советской армии вышли к государственной границе.
Видео: MPEG-4 AVC Video 21452 kbps 1080p / 24 fps / 16:9 / High Profile 4.1
Аудио: Dolby Digital Audio Russian 224 kbps 2.0 / 48 kHz / 224 kbps / DN -4dB
-
-Фильм четвертый. "Битва за Берлин"
Длительность 01:26:07
«Битва за Берлин». 1945 г. Последние месяцы войны. Именно в эти дни решалась судьба порабощенной Европы. Началась Висло-Одерская операция. Три фронта под командованием Конева, Жукова и Рокоссовского устремились к столице Германии. К Берлину идут и англо-американские войска. «Опередить русских», — предлагает Черчиль и начинаются тайные переговоры с эмиссарами Гитлера, разоблаченные Ялтинской конференцией. Судьба Берлина решится на полях сражений.
Видео: MPEG-4 AVC Video 29701 kbps 1080p / 24 fps / 16:9 / High Profile 4.1
Аудио: Dolby Digital Audio Russian 224 kbps 2.0 / 48 kHz / 224 kbps / DN -4dB
-
-Фильм пятый. "Последний штурм"
Длительность 01:13:37
«Последний штурм». Последние дни войны, штурм рейхстага, сражение за каждый метр, за каждый этаж — и, наконец, водружение Знамени Победы над рейхстагом. Раздались первые залпы Победы. Главные герои фильма встречаются у входа в рейхстаг.
Видео: MPEG-4 AVC Video 29715 kbps 1080p / 24 fps / 16:9 / High Profile 4.1
Аудио: Dolby Digital Audio Russian 224 kbps 2.0 / 48 kHz / 224 kbps / DN -4dB

BDInfo

Film 1

DISC INFO:
Disc Title: Film 1
Disc Size: 22 355 472 480 bytes
Protection: AACS
BD-Java: No
BDInfo: 0.5.8
PLAYLIST REPORT:
Name: 00000.MPLS
Length: 1:31:35.104 (h:m:s.ms)
Size: 22 355 398 656 bytes
Total Bitrate: 32,55 Mbps
VIDEO:
Codec Bitrate Description
----- ------- -----------
MPEG-4 AVC Video 30913 kbps 1080p / 24 fps / 16:9 / High Profile 4.1
AUDIO:
Codec Language Bitrate Description
----- -------- ------- -----------
Dolby Digital Audio Russian 224 kbps 2.0 / 48 kHz / 224 kbps / DN -4dB
FILES:
Name Time In Length Size Total Bitrate
---- ------- ------ ---- -------------
00000.M2TS 0:00:00.000 1:31:35.104 22 355 398 656 32 550

Film 2

DISC INFO:
Disc Title: Film 2
Disc Size: 21 401 663 452 bytes
Protection: AACS
BD-Java: No
BDInfo: 0.5.8
PLAYLIST REPORT:
Name: 00000.MPLS
Length: 1:28:37.055 (h:m:s.ms)
Size: 21 401 591 808 bytes
Total Bitrate: 32,20 Mbps
VIDEO:
Codec Bitrate Description
----- ------- -----------
MPEG-4 AVC Video 30578 kbps 1080p / 24 fps / 16:9 / High Profile 4.1
AUDIO:
Codec Language Bitrate Description
----- -------- ------- -----------
Dolby Digital Audio Russian 224 kbps 2.0 / 48 kHz / 224 kbps / DN -4dB
FILES:
Name Time In Length Size Total Bitrate
---- ------- ------ ---- -------------
00000.M2TS 0:00:00.000 1:28:37.055 21 401 591 808 32 201

Film 3

DISC INFO:
Disc Title: Film 3
Disc Size: 22 221 086 120 bytes
Protection: AACS
BD-Java: No
BDInfo: 0.5.8
PLAYLIST REPORT:
Name: 00000.MPLS
Length: 2:10:38.720 (h:m:s.ms)
Size: 22 220 986 368 bytes
Total Bitrate: 22,68 Mbps
VIDEO:
Codec Bitrate Description
----- ------- -----------
MPEG-4 AVC Video 21452 kbps 1080p / 24 fps / 16:9 / High Profile 4.1
AUDIO:
Codec Language Bitrate Description
----- -------- ------- -----------
Dolby Digital Audio Russian 224 kbps 2.0 / 48 kHz / 224 kbps / DN -4dB
FILES:
Name Time In Length Size Total Bitrate
---- ------- ------ ---- -------------
00000.M2TS 0:00:00.000 2:10:38.720 22 220 986 368 22 678

Film 4

DISC INFO:
Disc Title: Film 4
Disc Size: 20 079 527 420 bytes
Protection: AACS
BD-Java: No
BDInfo: 0.5.8
PLAYLIST REPORT:
Name: 00000.MPLS
Length: 1:26:07.520 (h:m:s.ms)
Size: 20 079 458 304 bytes
Total Bitrate: 31,09 Mbps
VIDEO:
Codec Bitrate Description
----- ------- -----------
MPEG-4 AVC Video 29701 kbps 1080p / 24 fps / 16:9 / High Profile 4.1
AUDIO:
Codec Language Bitrate Description
----- -------- ------- -----------
Dolby Digital Audio Russian 224 kbps 2.0 / 48 kHz / 224 kbps / DN -4dB
FILES:
Name Time In Length Size Total Bitrate
---- ------- ------ ---- -------------
00000.M2TS 0:00:00.000 1:26:07.520 20 079 458 304 31 288

Film 5

DISC INFO:
Disc Title: Film 5
Disc Size: 17 284 760 024 bytes
Protection: AACS
BD-Java: No
BDInfo: 0.5.8
PLAYLIST REPORT:
Name: 00000.MPLS
Length: 1:13:37.760 (h:m:s.ms)
Size: 17 284 700 160 bytes
Total Bitrate: 31,30 Mbps
VIDEO:
Codec Bitrate Description
----- ------- -----------
MPEG-4 AVC Video 29715 kbps 1080p / 24 fps / 16:9 / High Profile 4.1
AUDIO:
Codec Language Bitrate Description
----- -------- ------- -----------
Dolby Digital Audio Russian 224 kbps 2.0 / 48 kHz / 224 kbps / DN -4dB
FILES:
Name Time In Length Size Total Bitrate
---- ------- ------ ---- -------------
00000.M2TS 0:00:00.000 1:13:37.760 17 284 700 160 31 300

Скриншоты

Other forum [Profile] [PM]
Display posts from previous:    
Reply to topic

The time now is: Today 13:20

All times are GMT + 3 Hours



You cannot post new topics in this forum
You cannot reply to topics in this forum
You cannot edit your posts in this forum
You cannot delete your posts in this forum
You cannot vote in polls in this forum
You cannot attach files in this forum
You cannot download files in this forum