Today is a free download without charge Download

Зеркало (Андрей Тарковский) [1974, СССР, драма, биография, история, Blu-ray disc 1080p] [UK 2 Disc Edition] + Sub Eng + Original Rus

Reply to topic
 
Author
Message

Omen ®

Longevity: 7 years 1 month

Posts: 181090

Торрент-статистика

Post 11-Nov-2016 01:00

[Quote]

Зеркало
Страна: СССР
Жанр: драма, биография, история
Год выпуска: 1974
Продолжительность: 01:47:00-Перевод: Не требуется
Cубтитры: английские
Оригинальная аудиодорожка: русский-Режиссер: Андрей Тарковский-В ролях: Маргарита Терехова, Олег Янковский, Филипп Янковский, Игнат Данильцев, Николай Гринько, Алла Демидова, Юрий Назаров, Анатолий Солоницын, Лариса Тарковская, Тамара Огородникова
Описание: Герой картины мучительно боится потерять любовь и понимание близких людей: матери, любимой женщины, сына. И чувствует, что жизнь с каждым днем все дальше уводит их друг от друга. Пытаясь сохранить семью, он обращается памятью к самым сильным впечатлениям своего детства, стараясь в том, детском, мировосприятии найти опору и оправдание своим сегодняшним переживаниям.-Релиз от:
-Тип релиза: Blu-ray disc
Контейнер: BDMV-Видео: MPEG-4 AVC Video / 34999 kbps / 1080p / 23,976 fps / 16:9 / High Profile 4.1-Аудио: English / LPCM Audio / 2.0 / 48 kHz / 1536 kbps / 16-bit
Цитата:
Цитата:
Аудиодорожка подписана как English, но на самом деле Russian

Disc 2

На диске
• Mary Wild Introduction (2:35)
• Selected scene commentary with Film Psychoanalyst Mary Wild (11:38 - Part 4 - The Mirror - Alienation in Language)
• Interview with screenwriter A. Misharin (32:32)
• Interview with Composer Eduard Artemev (21:10)
• Interview with Oleg Yankovskiy (9:55)
• Music Box Featurette "The Last Take" (3:24)
Видео: MPEG-4 AVC Video 30000 kbps 1080i / 25 fps / 16:9 / High Profile 4.1
Аудио: LPCM Audio English 768 kbps 1.0 / 48 kHz / 768 kbps / 16-bit

BDInfo

DISC INFO:
Disc Title: MIRROR_D2
Disc Size: 20 271 794 754 bytes
Protection: AACS
BD-Java: No
Extras: 50Hz Content
BDInfo: 0.5.8
PLAYLIST REPORT:
Name: 00006.MPLS
Length: 0:32:32.040 (h:m:s.ms)
Size: 8 122 447 872 bytes
Total Bitrate: 33,29 Mbps
VIDEO:
Codec Bitrate Description
----- ------- -----------
MPEG-4 AVC Video 30000 kbps 1080i / 25 fps / 16:9 / High Profile 4.1
AUDIO:
Codec Language Bitrate Description
----- -------- ------- -----------
LPCM Audio English 768 kbps 1.0 / 48 kHz / 768 kbps / 16-bit
DISC INFO:
Disc Title: MIRROR_D2
Disc Size: 20 271 794 754 bytes
Protection: AACS
BD-Java: No
Extras: 50Hz Content
BDInfo: 0.5.8
PLAYLIST REPORT:
Name: 00000.MPLS
Length: 0:21:10.640 (h:m:s.ms)
Size: 5 286 002 688 bytes
Total Bitrate: 33,28 Mbps
VIDEO:
Codec Bitrate Description
----- ------- -----------
MPEG-4 AVC Video 29998 kbps 1080i / 25 fps / 16:9 / High Profile 4.1
AUDIO:
Codec Language Bitrate Description
----- -------- ------- -----------
LPCM Audio English 768 kbps 1.0 / 48 kHz / 768 kbps / 16-bit
SUBTITLES:
Codec Language Bitrate Description
----- -------- ------- -----------
Presentation Graphics English 40,233 kbps
FILES:
Name Time In Length Size Total Bitrate
---- ------- ------ ---- -------------
00000.M2TS 0:00:00.000 0:21:10.640 5 286 002 688 33 281
DISC INFO:
Disc Title: MIRROR_D2
Disc Size: 20 271 794 754 bytes
Protection: AACS
BD-Java: No
Extras: 50Hz Content
BDInfo: 0.5.8
PLAYLIST REPORT:
Name: 00008.MPLS
Length: 0:11:38.864 (h:m:s.ms)
Size: 2 702 352 384 bytes
Total Bitrate: 30,93 Mbps
VIDEO:
Codec Bitrate Description
----- ------- -----------
MPEG-4 AVC Video 27809 kbps 1080p / 23,976 fps / 16:9 / High Profile 4.1
AUDIO:
Codec Language Bitrate Description
----- -------- ------- -----------
LPCM Audio English 1536 kbps 2.0 / 48 kHz / 1536 kbps / 16-bit
FILES:
Name Time In Length Size Total Bitrate
---- ------- ------ ---- -------------
00009.M2TS 0:00:00.000 0:11:38.864 2 702 352 384 30 934
DISC INFO:
Disc Title: MIRROR_D2
Disc Size: 20 271 794 754 bytes
Protection: AACS
BD-Java: No
Extras: 50Hz Content
BDInfo: 0.5.8
PLAYLIST REPORT:
Name: 00005.MPLS
Length: 0:09:54.920 (h:m:s.ms)
Size: 2 475 122 688 bytes
Total Bitrate: 33,28 Mbps
VIDEO:
Codec Bitrate Description
----- ------- -----------
MPEG-4 AVC Video 30000 kbps 1080i / 25 fps / 16:9 / High Profile 4.1
AUDIO:
Codec Language Bitrate Description
----- -------- ------- -----------
LPCM Audio English 1536 kbps 2.0 / 48 kHz / 1536 kbps / 16-bit
SUBTITLES:
Codec Language Bitrate Description
----- -------- ------- -----------
Presentation Graphics English 38,390 kbps
FILES:
Name Time In Length Size Total Bitrate
---- ------- ------ ---- -------------
00006.M2TS 0:00:00.000 0:09:54.920 2 475 122 688 33 283
DISC INFO:
Disc Title: MIRROR_D2
Disc Size: 20 271 794 754 bytes
Protection: AACS
BD-Java: No
Extras: 50Hz Content
BDInfo: 0.5.8
PLAYLIST REPORT:
Name: 00009.MPLS
Length: 0:03:24.639 (h:m:s.ms)
Size: 817 158 144 bytes
Total Bitrate: 31,95 Mbps
VIDEO:
Codec Bitrate Description
----- ------- -----------
MPEG-4 AVC Video 28711 kbps 1080i / 25 fps / 16:9 / High Profile 4.1
AUDIO:
Codec Language Bitrate Description
----- -------- ------- -----------
LPCM Audio English 1536 kbps 2.0 / 48 kHz / 1536 kbps / 16-bit
SUBTITLES:
Codec Language Bitrate Description
----- -------- ------- -----------
Presentation Graphics English 43,384 kbps
FILES:
Name Time In Length Size Total Bitrate
---- ------- ------ ---- -------------
00010.M2TS 0:00:00.000 0:03:24.639 817 158 144 31 945
DISC INFO:
Disc Title: MIRROR_D2
Disc Size: 20 271 794 754 bytes
Protection: AACS
BD-Java: No
Extras: 50Hz Content
BDInfo: 0.5.8
PLAYLIST REPORT:
Name: 00007.MPLS
Length: 0:02:35.572 (h:m:s.ms)
Size: 612 618 240 bytes
Total Bitrate: 31,50 Mbps
VIDEO:
Codec Bitrate Description
----- ------- -----------
MPEG-4 AVC Video 28354 kbps 1080p / 23,976 fps / 16:9 / High Profile 4.1
AUDIO:
Codec Language Bitrate Description
----- -------- ------- -----------
LPCM Audio English 1536 kbps 2.0 / 48 kHz / 1536 kbps / 16-bit
FILES:
Name Time In Length Size Total Bitrate
---- ------- ------ ---- -------------
00008.M2TS 0:00:00.000 0:02:35.572 612 618 240 31 503

BDInfo

DISC INFO:
Disc Title: MIRROR_D1
Disc Size: 31 221 834 323 bytes
Protection: AACS
BD-Java: No
BDInfo: 0.5.8
PLAYLIST REPORT:
Name: 00000.MPLS
Length: 1:47:00.997 (h:m:s.ms)
Size: 30 867 191 808 bytes
Total Bitrate: 38,46 Mbps
VIDEO:
Codec Bitrate Description
----- ------- -----------
MPEG-4 AVC Video 34999 kbps 1080p / 23,976 fps / 16:9 / High Profile 4.1
AUDIO:
Codec Language Bitrate Description
----- -------- ------- -----------
LPCM Audio English 1536 kbps 2.0 / 48 kHz / 1536 kbps / 16-bit
SUBTITLES:
Codec Language Bitrate Description
----- -------- ------- -----------
Presentation Graphics English 19,816 kbps
FILES:
Name Time In Length Size Total Bitrate
---- ------- ------ ---- -------------
00000.M2TS 0:00:00.000 1:47:00.997 30 867 191 808 38 458
CHAPTERS:
Number Time In Length Avg Video Rate Max 1-Sec Rate Max 1-Sec Time Max 5-Sec Rate Max 5-Sec Time Max 10Sec Rate Max 10Sec Time Avg Frame Size Max Frame Size Max Frame Time
------ ------- ------ -------------- -------------- -------------- -------------- -------------- -------------- -------------- -------------- -------------- --------------
1 0:00:00.000 0:14:46.635 35 001 kbps 44 204 kbps 00:10:29.795 37 974 kbps 00:10:27.001 36 486 kbps 00:05:46.471 182 472 bytes 481 360 bytes 00:05:47.430
2 0:14:46.635 0:07:33.452 35 008 kbps 38 285 kbps 00:19:29.126 36 511 kbps 00:16:57.182 36 008 kbps 00:19:20.325 182 516 bytes 400 016 bytes 00:15:47.780
3 0:22:20.088 0:12:16.110 34 994 kbps 44 600 kbps 00:24:37.475 38 464 kbps 00:32:44.462 36 595 kbps 00:32:39.457 182 445 bytes 352 296 bytes 00:34:32.445
4 0:34:36.199 0:08:01.772 35 008 kbps 44 172 kbps 00:40:22.294 38 428 kbps 00:40:18.833 36 720 kbps 00:40:18.332 182 516 bytes 411 662 bytes 00:35:21.369
5 0:42:37.972 0:09:24.480 35 010 kbps 42 618 kbps 00:45:55.794 37 775 kbps 00:42:44.895 36 421 kbps 00:42:39.932 182 525 bytes 389 153 bytes 00:51:58.448
6 0:52:02.452 0:06:56.499 34 981 kbps 42 445 kbps 00:57:02.794 38 043 kbps 00:56:59.791 36 555 kbps 00:56:54.786 182 376 bytes 428 127 bytes 00:57:24.649
7 0:58:58.952 0:09:28.609 35 013 kbps 43 777 kbps 01:07:14.196 38 384 kbps 01:07:13.195 36 371 kbps 00:58:58.952 182 540 bytes 443 803 bytes 01:07:13.237
8 1:08:27.561 0:12:06.600 34 993 kbps 38 884 kbps 01:09:21.365 36 556 kbps 01:19:41.860 36 022 kbps 01:19:42.068 182 436 bytes 388 770 bytes 01:20:34.162
9 1:20:34.162 0:12:22.116 34 992 kbps 38 637 kbps 01:25:50.436 36 505 kbps 01:25:46.474 35 901 kbps 01:25:41.469 182 430 bytes 431 992 bytes 01:20:47.926
10 1:32:56.279 0:04:42.699 35 019 kbps 39 343 kbps 01:35:06.033 36 478 kbps 01:35:03.114 35 914 kbps 01:34:58.109 182 570 bytes 425 336 bytes 01:34:17.985
11 1:37:38.978 0:08:28.216 34 988 kbps 43 801 kbps 01:43:22.654 37 552 kbps 01:43:18.817 36 479 kbps 01:43:38.837 182 410 bytes 450 870 bytes 01:44:11.912
12 1:46:07.194 0:00:53.803 34 945 kbps 34 999 kbps 01:46:07.194 34 999 kbps 01:46:07.194 34 999 kbps 01:46:07.194 182 329 bytes 182 471 bytes 01:46:07.235

Скриншоты

Other forum [Profile] [PM]
Display posts from previous:    
Reply to topic

The time now is: Today 09:27

All times are GMT + 3 Hours



You cannot post new topics in this forum
You cannot reply to topics in this forum
You cannot edit your posts in this forum
You cannot delete your posts in this forum
You cannot vote in polls in this forum
You cannot attach files in this forum
You cannot download files in this forum