Today is a free download without charge Download

(Rock\'n\'Roll, Rockabilly, Blues, Pop, Rock) [WEB] Elvis Presley - Way Down in the Jungle Room (2CD) - 2016, FLAC (tracks), lossless

Reply to topic
 
Author
Message

Omen ®

Longevity: 8 years 5 months

Posts: 181087

Торрент-статистика

Post 07-Aug-2016 01:00

[Quote]

Elvis Presley / Way Down in the Jungle Room (2CD)
Жанр: Rock'n'Roll, Rockabilly, Blues, Pop, Rock
Носитель: [url=https://www.7digital.com/artist/elvis-presley-(2)/release/way-down-in-the-jungle-room-5455322]WEB[/url]
Год издания: 2016
Издатель (лейбл): RCA - Legacy
Страна исполнителя (группы): US
Аудиокодек: FLAC (*.flac)
Тип рипа: tracks
Битрейт аудио: lossless
Продолжительность: 02:10:44
Источник (релизер): сетевой торрент (WRZMusic)
Наличие сканов в содержимом раздачи: нет
'Elvis : Way Down In The Jungle Room' 2CD Release

Треклист

DISC 1 - THE MASTERS

01. Way Down (2:38)
02. She Thinks I Still Care (3:51)
03. Bitter They Are, Harder They Fall (3:17)
04. Pledging My Love (2:51)
05. For The Heart (3:23)
06. Love Coming Down (3:07)
07. He'll Have To Go (4:32)
08. Blue Eyes Crying In The Rain (3:42)
09. Hurt (2:07)
10. Never Again (2:51)
11. Danny Boy (3:56)
12. Solitaire (4:40)
13. Moody Blue (2:49)
14. It's Easy For You (3:27)
15. I'll Never Fall In Love Again (3:45)
16. The Last Farewell (4:03)

DISC 2 – THE OUTTAKES

01. Bitter They Are, Harder They Fall (Take 1) (5:15)
02. She Thinks I Still Care (Take 10) (6:30)
03. The Last Farewell (Take 2) (4:16)
04. Solitaire (Take 7) (5:37)
05. I'll Never Fall In Love Again (Take 5) (4:04)
06. Moody Blue (Take 1) (3:53)
07. For The Heart (Take 1) (3:55)
08. Hurt (Take 3) (2:31)
09. Danny Boy (Take 9) (4:02)
10. Never Again (Take 9) (3:57)
11. Love Coming Down (Take 3) (3:18)
12. Blue Eyes Crying In The Rain (Take 4) (4:59)
13. She Thinks I Still Care (Alternate Version, Take 2) (4:26)
14. It's Easy For You (Take 1) (5:24)
15. Way Down (Take 2) (3:50)
16. Pledging My Love (Take 3) (5:34)
17. For The Heart (Take 4) (4:13)

Лог проверки качества

-----------------------
DON'T MODIFY THIS FILE
-----------------------
PERFORMER: auCDtect Task Manager, ver. 1.5.1RC6 build 1.5.1.7Copyright (c) 2008-2010 y-soft. All rights reservedhttp://y-soft.org
ANALYZER: auCDtect: CD records authenticity detector, version 0.8.2Copyright (c) 2004 Oleg Berngardt. All rights reserved.Copyright (c) 2004 Alexander Djourik. All rights reserved.
FILE: 0101 Way Down.flac Size: 15874004 Hash: FD6C4F7A86E3E26C9FC0C9912EF8985E Accuracy: -m0 Conclusion: CDDA 99% Signature: D2535C9BB13BCEBD0F3FAF33A4ACC11ADF1F25F9FILE: 0102 She Thinks I Still Care.flac Size: 22500626 Hash: 5FE7983AE7EDA6E73F546052E489359D Accuracy: -m0 Conclusion: CDDA 100% Signature: D18EC47C44EFB7A10EFEB2FE328D04F311455C2BFILE: 0103 Bitter They Are, Harder They Fall.flac Size: 19982222 Hash: DD44F528AB7BCD4F683641989D8688C4 Accuracy: -m0 Conclusion: CDDA 99% Signature: D7FBADA905C95B1EA89F7B47C993429697D753E3FILE: 0104 Pledging My Love.flac Size: 17150062 Hash: 2A6D69532B79560BF6F8CA714E37FBF9 Accuracy: -m0 Conclusion: CDDA 100% Signature: 3AE34B155B320488F5B8AFA9E3261490D545DB20FILE: 0105 For The Heart.flac Size: 22641968 Hash: 5B684F13437CC22A85113EF3038B6E2B Accuracy: -m0 Conclusion: CDDA 100% Signature: 4D004772E24DF4168473E239E9293850E54E8607FILE: 0106 Love Coming Down.flac Size: 18731633 Hash: 7856D822A7A480A819A84BBAD135549C Accuracy: -m0 Conclusion: CDDA 100% Signature: 21F2633F7AC89EE8C591E8CC7B6B4EA948E9559AFILE: 0107 He'll Have To Go.flac Size: 28103225 Hash: E92328D6FFEF234AD86D6C7D24C0D6DA Accuracy: -m0 Conclusion: CDDA 99% Signature: 90314917058082E7FBED71F6394063A06255B7CCFILE: 0108 Blue Eyes Crying In The Rain.flac Size: 23139124 Hash: E246EDE8DAC12E0B7F9D7381C664D6FF Accuracy: -m0 Conclusion: CDDA 100% Signature: FFC4D41B2087FEC3868BB88722DD6F1100873854FILE: 0109 Hurt.flac Size: 13039511 Hash: E34BE720D6834B63556F8A8679EECE6C Accuracy: -m0 Conclusion: CDDA 100% Signature: FD77A5CE13B10AD4995B9BEA81047CCF4D1A7804FILE: 0110 Never Again.flac Size: 17664795 Hash: 6D60E26EF873F8E23623D2DBFE53C2E3 Accuracy: -m0 Conclusion: CDDA 99% Signature: C1F9EBC39B344E92ED63B1FA6F80C17CDFB5AB46FILE: 0111 Danny Boy.flac Size: 19669362 Hash: 1FC44ACDB219F4F7DD60E61455029662 Accuracy: -m0 Conclusion: CDDA 100% Signature: FF70D54497B1505C09EC09391D5BEA5DBA6046E1FILE: 0112 Solitaire.flac Size: 27675697 Hash: C289CAC977F89651A57F1B8D84446949 Accuracy: -m0 Conclusion: CDDA 100% Signature: 4A5C3D1BDAEE8FC025E17B391F4588E1F07EB245FILE: 0113 Moody Blue.flac Size: 18972566 Hash: 9891A1124BEE7E02E89229835D6125E3 Accuracy: -m0 Conclusion: CDDA 94% Signature: 062C802621018FE099134A6379F3BD748065D9D6FILE: 0114 It's Easy For You.flac Size: 21620129 Hash: 89EA3C2A0C946871FA463FD318C82A21 Accuracy: -m0 Conclusion: CDDA 100% Signature: D64E003D1FE5F72FC26ED5B0F4242A9855AD1DBCFILE: 0115 I'll Never Fall In Love Again.flac Size: 23388485 Hash: AECD580B6922E7CAFE48767485905CF1 Accuracy: -m0 Conclusion: CDDA 100% Signature: B183217FE7EDC9586FCD61BF94FEE01DF2470EF0FILE: 0116 The Last Farewell.flac Size: 24710505 Hash: B64B8495152631E0E9E9DBEB1E86F435 Accuracy: -m0 Conclusion: CDDA 100% Signature: A0CB1E61C61CDA3BF260B08E1F596B7B3737D028FILE: 0201 Bitter They Are, Harder They Fall (Take 1).flac Size: 29401242 Hash: 8EFDC56951197B864B1D1B4B8BE47D47 Accuracy: -m0 Conclusion: CDDA 100% Signature: 07E97CE2E816D2A53C6CC064ED6DBA026C79CE03FILE: 0202 She Thinks I Still Care (Take 10).flac Size: 35690609 Hash: D4C731616857B0B2FB7B9A789F9F13A3 Accuracy: -m0 Conclusion: CDDA 100% Signature: 97FBDA50BF806BF4EFBCD7D1A3CEF7279F673489FILE: 0203 The Last Farewell (Take 2).flac Size: 24987927 Hash: 06A5124E94088438FA07C98940389819 Accuracy: -m0 Conclusion: CDDA 100% Signature: CD726C18051DC36C1A7EDCCD7691C642EDE0CCC9FILE: 0204 Solitaire (Take 7).flac Size: 32206017 Hash: 15F4980525BE664E942B62CFE1F836E7 Accuracy: -m0 Conclusion: CDDA 100% Signature: 0AD31B4C490FC72C7CE3FCDFEB05BFD576D24A26FILE: 0205 I'll Never Fall In Love Again (Take 5).flac Size: 25164279 Hash: 699E2A34B8D76652C6E250CDFDE84ECE Accuracy: -m0 Conclusion: CDDA 100% Signature: C5E7AF379A9E8B2996E3C5DCFC0B64EEC7B295A1FILE: 0206 Moody Blue (Take 1).flac Size: 24787853 Hash: 50494E72764D7C1DD8C0DAD6423E0841 Accuracy: -m0 Conclusion: CDDA 100% Signature: 0D2D0918500600432B467565F87AD898EFBA2004FILE: 0207 For The Heart (Take 1).flac Size: 26319765 Hash: 970F944B1969BCAC9F8B63754212DC6B Accuracy: -m0 Conclusion: CDDA 99% Signature: 7DF946F911A11DB865F4365F5D5E970C6849C7A4FILE: 0208 Hurt (Take 3).flac Size: 15024872 Hash: B236C837FEF38889AC48134A37AF8D4C Accuracy: -m0 Conclusion: CDDA 100% Signature: 5FCE3A57BB9B263E91B58B3440DD062A2A717371FILE: 0209 Danny Boy (Take 9).flac Size: 20800028 Hash: 73D2A71F1EA0058A9DE6F962ECD8134E Accuracy: -m0 Conclusion: CDDA 100% Signature: 8254DC6F7DE26E45AC08528DB4C11C06DA3A2E18FILE: 0210 Never Again (Take 9).flac Size: 22829421 Hash: 3FBB25E3E02E301DE278FA60519428D6 Accuracy: -m0 Conclusion: CDDA 100% Signature: C3F92B965C37E6324CA8ACD8265C9791C1936889FILE: 0211 Love Coming Down (Take 3).flac Size: 18922432 Hash: D4CD7DBD36816D34F7BCC959E974431A Accuracy: -m0 Conclusion: CDDA 100% Signature: 119F49D34EC7D1450AD57632D1F6407BC524ACBCFILE: 0212 Blue Eyes Crying In The Rain (Take 4).flac Size: 30802169 Hash: B66A6E000509ED7F1107B2A1F09E2B5B Accuracy: -m0 Conclusion: CDDA 100% Signature: 58452735BD155E5F1D4B66086D0EAC0A2EA62E86FILE: 0213 She Thinks I Still Care (Alternate Version, Take 2).flac Size: 26372226 Hash: 92A49DB18DCFBE4D177C5FC64D415914 Accuracy: -m0 Conclusion: CDDA 100% Signature: 11637F2A31604862CF0F638D1605966C72BF19D4FILE: 0214 It's Easy For You (Take 1).flac Size: 30772438 Hash: 5D0FDDFA0F6AC5273D0926CED2100A4C Accuracy: -m0 Conclusion: CDDA 100% Signature: 79F98081F86EC761CD06811FDB8D71478F47ED09FILE: 0215 Way Down (Take 2).flac Size: 21809972 Hash: D27C430A0BC8F412716CFB07EBD65435 Accuracy: -m0 Conclusion: CDDA 100% Signature: 9F4899A71BAAEDEC76BADA40C4FA52C512D97F7FFILE: 0216 Pledging My Love (Take 3).flac Size: 32546503 Hash: 52603C266561BFD1648A8B9F8992EB49 Accuracy: -m0 Conclusion: CDDA 100% Signature: F160AA6570262A349FD8DC65376188479E6464DFFILE: 0217 For The Heart (Take 4).flac Size: 27437945 Hash: 116DB20CEFFAF09B257BC9AF50B1ECB6 Accuracy: -m0 Conclusion: CDDA 100% Signature: 58A6130BE1F4F73A090A671D0D54BC22DA86F86B

Динамический диапазон

foobar2000 1.3.8 / Dynamic Range Meter 1.1.1log date: 2016-08-06 01:20:52
--------------------------------------------------------------------------------Analyzed: Elvis Presley / Way Down In The Jungle Room--------------------------------------------------------------------------------
DR Peak RMS Duration Track--------------------------------------------------------------------------------DR13 0.00 dB -15.46 dB 2:38 0101-Way DownDR11 -0.15 dB -14.53 dB 3:51 0102-She Thinks I Still CareDR10 0.00 dB -13.24 dB 3:17 0103-Bitter They Are, Harder They FallDR13 -0.17 dB -15.94 dB 2:51 0104-Pledging My LoveDR9 -1.42 dB -13.07 dB 3:23 0105-For The HeartDR11 -0.16 dB -13.43 dB 3:07 0106-Love Coming DownDR12 -0.61 dB -14.86 dB 4:32 0107-He'll Have To GoDR11 -0.17 dB -13.11 dB 3:42 0108-Blue Eyes Crying In The RainDR10 -0.59 dB -12.60 dB 2:07 0109-HurtDR10 -0.14 dB -12.56 dB 2:51 0110-Never AgainDR11 -0.99 dB -17.00 dB 3:56 0111-Danny BoyDR12 -0.17 dB -14.84 dB 4:40 0112-SolitaireDR11 -0.13 dB -12.98 dB 2:49 0113-Moody BlueDR12 -0.15 dB -15.30 dB 3:27 0114-It's Easy For YouDR10 -0.09 dB -12.41 dB 3:45 0115-I'll Never Fall In Love AgainDR11 -0.25 dB -13.80 dB 4:03 0116-The Last FarewellDR12 -0.10 dB -16.15 dB 5:15 0201-Bitter They Are, Harder They Fall (Take 1)DR13 -0.14 dB -16.69 dB 6:30 0202-She Thinks I Still Care (Take 10)DR12 -0.12 dB -14.78 dB 4:16 0203-The Last Farewell (Take 2)DR14 -0.13 dB -18.49 dB 5:37 0204-Solitaire (Take 7)DR12 0.00 dB -15.22 dB 4:04 0205-I'll Never Fall In Love Again (Take 5)DR13 -0.08 dB -15.41 dB 3:53 0206-Moody Blue (Take 1)DR12 -0.06 dB -13.66 dB 3:55 0207-For The Heart (Take 1)DR12 0.00 dB -14.73 dB 2:31 0208-Hurt (Take 3)DR14 -2.23 dB -20.37 dB 4:02 0209-Danny Boy (Take 9)DR13 -0.13 dB -16.74 dB 3:57 0210-Never Again (Take 9)DR13 -0.06 dB -16.12 dB 3:18 0211-Love Coming Down (Take 3)DR12 -0.09 dB -14.76 dB 4:59 0212-Blue Eyes Crying In The Rain (Take 4)DR13 -0.17 dB -16.35 dB 4:26 0213-She Thinks I Still Care (Alternate Version, Take 2)DR13 -1.14 dB -17.92 dB 5:24 0214-It's Easy For You (Take 1)DR12 -0.22 dB -16.96 dB 3:50 0215-Way Down (Take 2)DR13 0.00 dB -16.71 dB 5:34 0216-Pledging My Love (Take 3)DR11 -0.65 dB -13.90 dB 4:13 0217-For The Heart (Take 4)--------------------------------------------------------------------------------
Number of tracks: 33Official DR value: DR12
Samplerate: 44100 HzChannels: 2Bits per sample: 16Bitrate: 863 kbpsCodec: FLAC================================================================================

Об альбоме

Альбом "Way Down In The Jungle Room" редких демо-записей и ранее не публикованныхнных композиций великого короля поп-музыки Элвиса Пресли. Полная коллекция финальной студийной сессии Пресли, впервые собран-ная в одной антологии, Way Down In The Jungle Room — это существен-ное и приятное дополнение в музыкальное собрание каждого меломана. В середине 1970-х Элвис, Король Рок-н-ролла, стал одним из первых испол-нителей, которые осуществили полноценную запись профессионального уровня в уютной домашней студии. Совместно с оригинальными записями, спродюсированными Элвисом Пресли и Фелтоном Джарвисом (который отвечал за продакшен большин-ства записей Элвиса с 1966 по 1977 год), "Way Down In The Jungle Room" впервые в истории представляет мастер-записи и редкие дубли, записан-ные во время двух легендарных сессий (2-8 февраля 1976 г. и 28-30 октяб-ря 1976 г.) в студии Грейсленда "Jungle Room" — которые затем были от-правлены в студию профессионального калибра для того, чтобы запечат-леть эти незабываемые работы. Материалы звукозаписи недавно были сведены звукоинженером и обладателем «Грэмми» Мэттом Росс-Спэнгом в студии Sam Phillips Recording в Мемфисе, штат Теннесси. В записи материала Элвису помогало множество участников его группы для турне: Джеймс Бертон (гитара), Ронни Тутт (барабаны), Дэвид Бриггс (клавишные), Гленн Д. Хардин (клавишные), Джерри Шефф (бас-гитара), Норберт Патнэм (бас-гитара) и Джей Ди Самнер и The Stamps (вокал). Элвис Пресли - певец, бунтарь и славный парень, актёр с чувственным лицом, король имиджа и рок-н-ролла, человек, изменивший популярную музыку ХХ века. Элвиса любили или ненавидели - никто не оставался равнодушным к его неповторимому голосу и манере держаться на сцене.
-P.S.: Изготовлены самопальные *.CUE файлы для экспресс-записи 2-х CD-Audio дисков.

DISC 1 - THE MASTERS

REM GENRE "Rock"REM DATE 2016REM DISCID E50CE410PERFORMER "Elvis Presley"TITLE "Way Down In The Jungle Room"REM DISCNUMBER 1REM TOTALDISCS 2FILE "0101 Way Down.flac" WAVE TRACK 01 AUDIO PERFORMER "Elvis Presley" TITLE "Way Down" INDEX 01 00:00:00FILE "0102 She Thinks I Still Care.flac" WAVE TRACK 02 AUDIO PERFORMER "Elvis Presley" TITLE "She Thinks I Still Care" INDEX 01 00:00:00FILE "0103 Bitter They Are, Harder They Fall.flac" WAVE TRACK 03 AUDIO PERFORMER "Elvis Presley" TITLE "Bitter They Are, Harder They Fall" INDEX 01 00:00:00FILE "0104 Pledging My Love.flac" WAVE TRACK 04 AUDIO PERFORMER "Elvis Presley" TITLE "Pledging My Love" INDEX 01 00:00:00FILE "0105 For The Heart.flac" WAVE TRACK 05 AUDIO PERFORMER "Elvis Presley" TITLE "For The Heart" INDEX 01 00:00:00FILE "0106 Love Coming Down.flac" WAVE TRACK 06 AUDIO PERFORMER "Elvis Presley" TITLE "Love Coming Down" INDEX 01 00:00:00FILE "0107 He'll Have To Go.flac" WAVE TRACK 07 AUDIO PERFORMER "Elvis Presley" TITLE "He'll Have To Go" INDEX 01 00:00:00FILE "0108 Blue Eyes Crying In The Rain.flac" WAVE TRACK 08 AUDIO PERFORMER "Elvis Presley" TITLE "Blue Eyes Crying In The Rain" INDEX 01 00:00:00FILE "0109 Hurt.flac" WAVE TRACK 09 AUDIO PERFORMER "Elvis Presley" TITLE "Hurt" INDEX 01 00:00:00FILE "0110 Never Again.flac" WAVE TRACK 10 AUDIO PERFORMER "Elvis Presley" TITLE "Never Again" INDEX 01 00:00:00FILE "0111 Danny Boy.flac" WAVE TRACK 11 AUDIO PERFORMER "Elvis Presley" TITLE "Danny Boy" INDEX 01 00:00:00FILE "0112 Solitaire.flac" WAVE TRACK 12 AUDIO PERFORMER "Elvis Presley" TITLE "Solitaire" INDEX 01 00:00:00FILE "0113 Moody Blue.flac" WAVE TRACK 13 AUDIO PERFORMER "Elvis Presley" TITLE "Moody Blue" INDEX 01 00:00:00FILE "0114 It's Easy For You.flac" WAVE TRACK 14 AUDIO PERFORMER "Elvis Presley" TITLE "It's Easy For You" INDEX 01 00:00:00FILE "0115 I'll Never Fall In Love Again.flac" WAVE TRACK 15 AUDIO PERFORMER "Elvis Presley" TITLE "I'll Never Fall In Love Again" INDEX 01 00:00:00FILE "0116 The Last Farewell.flac" WAVE TRACK 16 AUDIO PERFORMER "Elvis Presley" TITLE "The Last Farewell" INDEX 01 00:00:00

DISC 2 – THE OUTTAKES

REM GENRE "Rock"REM DATE 2016REM DISCID EA11BF11PERFORMER "Elvis Presley"TITLE "Way Down In The Jungle Room"REM DISCNUMBER 2REM TOTALDISCS 2FILE "0201 Bitter They Are, Harder They Fall (Take 1).flac" WAVE TRACK 01 AUDIO PERFORMER "Elvis Presley" TITLE "Bitter They Are, Harder They Fall (Take 1)" INDEX 01 00:00:00FILE "0202 She Thinks I Still Care (Take 10).flac" WAVE TRACK 02 AUDIO PERFORMER "Elvis Presley" TITLE "She Thinks I Still Care (Take 10)" INDEX 01 00:00:00FILE "0203 The Last Farewell (Take 2).flac" WAVE TRACK 03 AUDIO PERFORMER "Elvis Presley" TITLE "The Last Farewell (Take 2)" INDEX 01 00:00:00FILE "0204 Solitaire (Take 7).flac" WAVE TRACK 04 AUDIO PERFORMER "Elvis Presley" TITLE "Solitaire (Take 7)" INDEX 01 00:00:00FILE "0205 I'll Never Fall In Love Again (Take 5).flac" WAVE TRACK 05 AUDIO PERFORMER "Elvis Presley" TITLE "I'll Never Fall In Love Again (Take 5)" INDEX 01 00:00:00FILE "0206 Moody Blue (Take 1).flac" WAVE TRACK 06 AUDIO PERFORMER "Elvis Presley" TITLE "Moody Blue (Take 1)" INDEX 01 00:00:00FILE "0207 For The Heart (Take 1).flac" WAVE TRACK 07 AUDIO PERFORMER "Elvis Presley" TITLE "For The Heart (Take 1)" INDEX 01 00:00:00FILE "0208 Hurt (Take 3).flac" WAVE TRACK 08 AUDIO PERFORMER "Elvis Presley" TITLE "Hurt (Take 3)" INDEX 01 00:00:00FILE "0209 Danny Boy (Take 9).flac" WAVE TRACK 09 AUDIO PERFORMER "Elvis Presley" TITLE "Danny Boy (Take 9)" INDEX 01 00:00:00FILE "0210 Never Again (Take 9).flac" WAVE TRACK 10 AUDIO PERFORMER "Elvis Presley" TITLE "Never Again (Take 9)" INDEX 01 00:00:00FILE "0211 Love Coming Down (Take 3).flac" WAVE TRACK 11 AUDIO PERFORMER "Elvis Presley" TITLE "Love Coming Down (Take 3)" INDEX 01 00:00:00FILE "0212 Blue Eyes Crying In The Rain (Take 4).flac" WAVE TRACK 12 AUDIO PERFORMER "Elvis Presley" TITLE "Blue Eyes Crying In The Rain (Take 4)" INDEX 01 00:00:00FILE "0213 She Thinks I Still Care (Alternate Version, Take 2).flac" WAVE TRACK 13 AUDIO PERFORMER "Elvis Presley" TITLE "She Thinks I Still Care (Alternate Version, Take 2)" INDEX 01 00:00:00FILE "0214 It's Easy For You (Take 1).flac" WAVE TRACK 14 AUDIO PERFORMER "Elvis Presley" TITLE "It's Easy For You (Take 1)" INDEX 01 00:00:00FILE "0215 Way Down (Take 2).flac" WAVE TRACK 15 AUDIO PERFORMER "Elvis Presley" TITLE "Way Down (Take 2)" INDEX 01 00:00:00FILE "0216 Pledging My Love (Take 3).flac" WAVE TRACK 16 AUDIO PERFORMER "Elvis Presley" TITLE "Pledging My Love (Take 3)" INDEX 01 00:00:00FILE "0217 For The Heart (Take 4).flac" WAVE TRACK 17 AUDIO PERFORMER "Elvis Presley" TITLE "For The Heart (Take 4)" INDEX 01 00:00:00

Интересные факты

В 1976 году творческому союзу Элвиса Пресли с RCA Records исполнилось двадцать лет. За это время было сделано немало записей, вошедших в историю рок-н-ролла и вот теперь, когда Пресли уже исполнилось сорок лет, он потратил много часов на нахождение в студии звукозаписи и захотел внести какое-то разнообразие в этот процесс, сделать его менее формальным. В поисках альтернативы, чтобы сохранить гастрольный график Элвиса и обеспечить места в чартах, было принято решение преобразовать Комнату Джунглей в Грейсленде, названную так за ее экзотический декор, в неофициальную студию. С помощью передвижной студии RCA, под управлением Фелтона Джарвиса, Пресли в течении 1976 года, периодически, записывался в Комнате Джунглей. Материал был самый разнообразный: от смеси кантри и поп-каверов (Blue Eyes Crying in the Rain, I'll Never Fall in Love Again, Danny Boy, Solitaire) и до песен позднего периода Пресли, ставших уже классикой, таких как Moody Blue и Way Down. - Большинство материалов из "Комнаты Джунглей" был выпущен в альбоме From Elvis Presley Boulevard, весной 1976 года, песня Hurt вошла в ТОП-10. Год спустя, в июле 1977 года, эти сеансы были соединены с переозвученным материалом и выпущены как Moody Blue. Заглавный трек целый месяц будет находиться в хит-парадах страны; затем его сменит Way Down, предваряя новости о трагической гибели Элвиса Пресли 16 августа 1977 года. Они были последними студийными альбомами, выпущенными Пресли при жизни. - Way Down In The Jungle Room заново воспроизводит эти сессии, в двух дисках, представляя оригинальные мастер-записи, с редкими альтернативными версиями и демонстрируя блестящее заключательное выступление Пресли. Изменение настроек ничуть не помешало сохранить мощь этих великолепных записей и Way Down In The Jungle Room снова освещает нам достижения Короля - в его замке, но без намерения отречения от трона. Он будет выпущен в цифровом виде, как набор из 2CD и в двойном виниле.
http://www.elvis.com/
https://music.yandex.ru/album/3538905
https://ru.wikipedia.org/wiki/Пресли,_Элвис
Other forum [Profile] [PM]
Display posts from previous:    
Reply to topic

The time now is: Today 15:05

All times are GMT + 3 Hours



You cannot post new topics in this forum
You cannot reply to topics in this forum
You cannot edit your posts in this forum
You cannot delete your posts in this forum
You cannot vote in polls in this forum
You cannot attach files in this forum
You cannot download files in this forum