Today is a free download without charge Download

Проповедник / Preacher / Сезон: 1 / Серии: 1-8 из 10 (Эван Голдберг, Сет Роген, Майкл Словис) [2016, фантастика, драма, экранизация комикса, WEB-DL 1080p] MVO (GladiolusTV) + Original

Reply to topic
 
Author
Message

Omen ®

Longevity: 6 years 6 months

Posts: 181112

Торрент-статистика

Post 21-Jul-2016 01:00

[Quote]

Проповедник / Preacher
Год выпуска: 2016
Страна: США
Жанр: фантастика, драма, экранизация комикса
Продолжительность: серии от 42 минут до 1:04 часа
Перевод: Любительский (многоголосый закадровый) GladiolusTV
Режиссёр: Эван Голдберг, Сет Роген, Майкл Словис
В ролях: Доминик Купер, Том Брук, У. Эрл Браун, Йен Коллетти, Джозеф Гилган, Люси Гриффитс, Джеки Эрл Хейли, Рут Негга, Дерек Уилсон, Анатол Юсеф и другие.
Описание: Священник Джесси Кастер по воле случая стал носителем внутри своего естества странного существа по имени Генезис. Это дитя совокупления ангела и демона представляет собой одновременно чистый идеал и квинтэссенцию света, но также сгусток абсолютного зла. Генезис — единственное существо во Вселенной, которое может встать вровень с Богом, если того пожелает, а его носитель автоматически становится самым могущественным существом в материальном мире. И это проповедник Кастер.
Доп. информация: Озвучено студией GladiolusTV
Перевод и закадровый текст Wanker и TonMeister, а также Комзолова, Psycho Clown, Big Mac, Марондерай, Далек в феске и Доктор Ух-Ух!
Сэмпл: http://multi-up.com/1103531
Качество: WEB-DL 1080p
Контейнер: MKV
Видео: AVC, 1916x1076 (16:9), 23,976 fps, ~5000 kbps
Аудио: русский / AC3 / 5.1 / 48 kHz / 384 kbps / 16 bit
Аудио 2: английский / AC3 / 5.1 / 48 kHz / 384 kbps / 16 bit
Субтитры: русские софтсабы на надписи

MediaInfo

Общее
Уникальный идентификатор : 279408889242904083705097466181743620267 (0xD23431D4B82277087693466D14B530AB)
Полное имя : /Volumes/4 TB/RuTracker/Preacher.S01.1080p.GladiolusTV/Preacher.S01E01.WEB-DL.1080p.GladiolusTV.mkv
Формат : Matroska
Версия формата : Version 4 / Version 2
Размер файла : 2,65 Гбайт
Продолжительность : 1 ч. 4 м.
Общий поток : 5861 Кбит/сек
Дата кодирования : UTC 2016-05-29 02:23:40
Программа кодирования : mkvmerge v9.2.0 ('Photograph') 64bit
Библиотека кодирования : libebml v1.3.3 + libmatroska v1.4.4
Видео
Идентификатор : 1
Формат : AVC
Формат/Информация : Advanced Video Codec
Профиль формата : High@L4
Параметр CABAC формата : Да
Параметр ReFrames формата : 4 кадра
Идентификатор кодека : V_MPEG4/ISO/AVC
Продолжительность : 1 ч. 4 м.
Битрейт : 5091 Кбит/сек
Ширина : 1916 пикселей
Высота : 1076 пикселей
Соотношение сторон : 16:9
Режим частоты кадров : Постоянный
Частота кадров : 23,976 кадра/сек
Цветовое пространство : YUV
Субдискретизация насыщенности : 4:2:0
Битовая глубина : 8 бит
Тип развёртки : Прогрессивная
Бит/(Пиксели*Кадры) : 0.103
Размер потока : 2,30 Гбайт (87%)
Язык : English
Default : Да
Forced : Нет
Цветовой диапазон : Limited
Основные цвета : BT.709
Характеристики трансфера : BT.709
Коэффициенты матрицы : BT.709
Аудио #1
Идентификатор : 2
Формат : AC-3
Формат/Информация : Audio Coding 3
Расширение режима : CM (complete main)
Параметр Endianness формата : Big
Идентификатор кодека : A_AC3
Продолжительность : 1 ч. 4 м.
Вид битрейта : Постоянный
Битрейт : 384 Кбит/сек
Каналы : 6 каналов
Расположение каналов : Front: L C R, Side: L R, LFE
Частота : 48,0 КГц
Частота кадров : 31,250 кадров/сек (1536 spf)
Метод сжатия : С потерями
Размер потока : 178 Мбайт (7%)
Заголовок : GladiolusTV
Язык : Russian
Default : Да
Forced : Да
Аудио #2
Идентификатор : 3
Формат : AC-3
Формат/Информация : Audio Coding 3
Расширение режима : CM (complete main)
Параметр Endianness формата : Big
Идентификатор кодека : A_AC3
Продолжительность : 1 ч. 4 м.
Вид битрейта : Постоянный
Битрейт : 384 Кбит/сек
Каналы : 6 каналов
Расположение каналов : Front: L C R, Side: L R, LFE
Частота : 48,0 КГц
Частота кадров : 31,250 кадров/сек (1536 spf)
Метод сжатия : С потерями
Размер потока : 178 Мбайт (7%)
Заголовок : Оригинал
Язык : English
Default : Нет
Forced : Нет
Текст
Идентификатор : 4
Формат : UTF-8
Идентификатор кодека : S_TEXT/UTF8
Идентификатор кодека/Информация : UTF-8 Plain Text
Продолжительность : 1 ч. 4 м.
Битрейт : 5 бит/сек
Count of elements : 56
Размер потока : 2,50 Кбайт (0%)
Заголовок : Надписи
Язык : Russian
Default : Да
Forced : Да

Скриншоты

Other forum [Profile] [PM]
Display posts from previous:    
Reply to topic

The time now is: Today 07:05

All times are GMT + 3 Hours



You cannot post new topics in this forum
You cannot reply to topics in this forum
You cannot edit your posts in this forum
You cannot delete your posts in this forum
You cannot vote in polls in this forum
You cannot attach files in this forum
You cannot download files in this forum