Today is a free download without charge Download

(Rock\'n\'Roll/Surf) [CD] Jinx Jones - Twang-Tastic! - 2016, FLAC (image+.cue), lossless

Reply to topic
 
Author
Message

Omen ®

Longevity: 8 years 5 months

Posts: 181087

Торрент-статистика

Post 15-Jul-2016 01:01

[Quote]

Jinx Jones / Twang-Tastic!
Жанр: Rock'n'Roll/Surf
Носитель: CD
Страна-производитель диска (релиза): Russia
Год издания: 2016
Издатель (лейбл): Time Blues
Аудиокодек: FLAC (*.flac)
Тип рипа: image+.cue
Битрейт аудио: lossless
Продолжительность: 42'04''
Источник (релизер): RedHotBlues
Наличие сканов в содержимом раздачи: да
Треклист:
CD: Jinx Jones - Twang-Tastic!
01. Metalflake Sky [0:03:50.36]
02. Nothing Left to Burn [0:03:33.66]
03. Ruin My Bad Reputation [0:03:08.67]
04. Wham-Bam Boogie [0:03:09.20]
05. Flying Home [0:03:24.73]
06. Midnight Train [0:03:13.55]
07. Better Off Gone [0:03:08.11]
08. Beat Crazy Baby [0:02:52.49]
09. Love Don't Live Here No More [0:03:32.64]
10. Jinx's Guitar Boogie [0:03:19.24]
11. High and Dry [0:03:48.52]
12. Too Many Chicks [0:03:06.49]
13. Theme From Thunderball [0:01:52.59]

Лог создания рипа

Exact Audio Copy V1.1 from 23. June 2015
Отчёт EAC об извлечении, выполненном 11. июля 2016, 22:29
Jinx Jones / Twang-Tastic!
Дисковод: _NEC DVD_RW ND-4570A Adapter: 1 ID: 0
Режим чтения : ДостоверностьИспользование точного потока : ДаОтключение кэша аудио : ДаИспользование указателей C2 : Нет
Коррекция смещения при чтении : 48Способность читать области Lead-in и Lead-out : НетЗаполнение пропущенных сэмплов тишиной : ДаУдаление блоков с тишиной в начале и конце : НетПри вычислениях CRC использовались нулевые сэмплы : ДаИнтерфейс : Встроенный Win32-интерфейс для Win NT/2000
Выходной формат : Пользовательский кодировщикВыбранный битрейт : 768 kBit/sКачество : ВысокийДобавление ID3-тега : НетУтилита сжатия : C:\Program Files\Exact Audio Copy\FLAC\FLAC.EXEДополнительные параметры : -6 -V -T "ARTIST=%artist%" -T "TITLE=%title%" -T "ALBUM=%albumtitle%" -T "DATE=%year%" -T "TRACKNUMBER=%tracknr%" -T "GENRE=%genre%" -T "COMMENT=%comment%" -T "BAND=%albuminterpret%" -T "ALBUMARTIST=%albuminterpret%" -T "COMPOSER=%composer%" %haslyrics%--tag-from-file=LYRICS="%lyricsfile%"%haslyrics% -T "DISCNUMBER=%cdnumber%" -T "TOTALDISCS=%totalcds%" -T "TOTALTRACKS=%numtracks%" %hascover%--picture="%coverfile%"%hascover% %source% -o %dest%
TOC извлечённого CD
Трек | Старт | Длительность | Начальный сектор | Конечный сектор --------------------------------------------------------------------- 1 | 0:00.00 | 3:50.36 | 0 | 17285 2 | 3:50.36 | 3:33.66 | 17286 | 33326 3 | 7:24.27 | 3:08.67 | 33327 | 47493 4 | 10:33.19 | 3:09.20 | 47494 | 61688 5 | 13:42.39 | 3:24.73 | 61689 | 77061 6 | 17:07.37 | 3:13.55 | 77062 | 91591 7 | 20:21.17 | 3:08.11 | 91592 | 105702 8 | 23:29.28 | 2:52.49 | 105703 | 118651 9 | 26:22.02 | 3:32.64 | 118652 | 134615 10 | 29:54.66 | 3:19.24 | 134616 | 149564 11 | 33:14.15 | 3:48.52 | 149565 | 166716 12 | 37:02.67 | 3:06.49 | 166717 | 180715 13 | 40:09.41 | 1:52.59 | 180716 | 189174
Характеристики диапазона извлечения и сообщения об ошибках
Выбранный диапазон
Имя файла E:\Uploads 2016\Jinx Jones - Twang-Tastic! - 2016 42'04''\Jinx Jones - Twang-Tastic!.wav
Пиковый уровень 100.0 % Скорость извлечения 6.8 X Качество диапазона 100.0 % CRC теста CA61D811 CRC копии CA61D811 Копирование... OK
Ошибок не произошло
Конец отчёта
---- CUETools DB Plugin V2.1.6
[CTDB TOCID: 2.y76a12wKTuB2s52qhfRl4UBr4-] disk not present in databaseSubmit result: 2.y76a12wKTuB2s52qhfRl4UBr4- has been uploaded
==== Контрольная сумма отчёта B677B07AE553EB370572BE899977B956AC8339729C39C307E94FFBD95E2BF98C ====

Содержание индексной карты (.CUE)

REM GENRE "Rock & Roll"REM DATE 2016REM DISCID A209DA0DREM COMMENT "ExactAudioCopy v1.1"PERFORMER "Jinx Jones"TITLE "Twang-Tastic!"FILE "Jinx Jones - Twang-Tastic!.flac" WAVE TRACK 01 AUDIO TITLE "Metalflake Sky" PERFORMER "Jinx Jones" INDEX 01 00:00:00 TRACK 02 AUDIO TITLE "Nothing Left to Burn" PERFORMER "Jinx Jones" INDEX 01 03:50:36 TRACK 03 AUDIO TITLE "Ruin My Bad Reputation" PERFORMER "Jinx Jones" INDEX 01 07:24:27 TRACK 04 AUDIO TITLE "Wham-Bam Boogie" PERFORMER "Jinx Jones" INDEX 01 10:33:19 TRACK 05 AUDIO TITLE "Flying Home" PERFORMER "Jinx Jones" INDEX 01 13:42:39 TRACK 06 AUDIO TITLE "Midnight Train" PERFORMER "Jinx Jones" INDEX 01 17:07:37 TRACK 07 AUDIO TITLE "Better Off Gone" PERFORMER "Jinx Jones" INDEX 01 20:21:17 TRACK 08 AUDIO TITLE "Beat Crazy Baby" PERFORMER "Jinx Jones" INDEX 01 23:29:28 TRACK 09 AUDIO TITLE "Love Don't Live Here No More" PERFORMER "Jinx Jones" INDEX 01 26:22:02 TRACK 10 AUDIO TITLE "Jinx's Guitar Boogie" PERFORMER "Jinx Jones" INDEX 01 29:54:66 TRACK 11 AUDIO TITLE "High and Dry" PERFORMER "Jinx Jones" INDEX 01 33:14:15 TRACK 12 AUDIO TITLE "Too Many Chicks" PERFORMER "Jinx Jones" INDEX 01 37:02:67 TRACK 13 AUDIO TITLE "Theme From Thunderball" PERFORMER "Jinx Jones" INDEX 01 40:09:41

Лог проверки качества

-----------------------
DON'T MODIFY THIS FILE
-----------------------
PERFORMER: auCDtect Task Manager, ver. 1.5.1RC4 build 1.5.1.5Copyright (c) 2008-2010 y-soft. All rights reservedhttp://y-soft.org
ANALYZER: auCDtect: CD records authenticity detector, version 0.8.2Copyright (c) 2004 Oleg Berngardt. All rights reserved.Copyright (c) 2004 Alexander Djourik. All rights reserved.
FILE: Jinx Jones - Twang-Tastic!.flac Size: 272744415 Hash: 85591ACE0DCE117FE30EE67A395D001E Accuracy: -m0 Conclusion: CDDA 100% Signature: DB0727B4A5DBEF95C8A634E803EC549561ABE22E
Other forum [Profile] [PM]
Display posts from previous:    
Reply to topic

The time now is: Today 14:43

All times are GMT + 3 Hours



You cannot post new topics in this forum
You cannot reply to topics in this forum
You cannot edit your posts in this forum
You cannot delete your posts in this forum
You cannot vote in polls in this forum
You cannot attach files in this forum
You cannot download files in this forum