Today is a free download without charge Download

(Surf, Instrumental Rock) The Aqua Velvets - Коллекция (8 Альбомов) - 1992-2015, FLAC (image+.cue), lossless

Reply to topic
 
Author
Message

Omen ®

Longevity: 8 years 5 months

Posts: 181087

Торрент-статистика

Post 07-Jul-2016 21:00

[Quote]


-Жанр: Surf, Instrumental Rock
Год выпуска диска: 1992-2015
Производитель диска: USA
Аудио кодек: FLAC
Тип рипа: image+.cue
Битрейт аудио: lossless
Источник (релизер):
Наличие сканов в содержимом раздачи: да
Трэклист:-7 Июля 2016 года добавлены альбомы:
1992 - The Aqua Velvets
1995 - Surfmania
1996 - Nomad
1997 - Guitar Noir
1999 - Miles Corbin - Sounds From the Tiki Hut
2015 - El Morocco

Желающие могут ознакомиться.-

1992 - The Aqua Velvets - 35:09

01. Bravado (3:27)
02. Spy In The House Of Love (3:41)
03. Swampabilly Hop (3:33)
04. Spanish Blue (3:30)
05. Blue Rhumba (3:11)
06. Night In Paamul (2:22)
07. Gringo (3:38)
08. Surf Boogie (3:42)
09. Beauty And The Beach (3:29)
10. Tango De Milo (4:31)-

~EAC~

Exact Audio Copy V1.0 beta 3 from 29. August 2011
Отчёт EAC об извлечении, выполненном 1. июля 2016, 9:36
The Aqua Velvets / The Aqua Velvets
Дисковод: ATAPI iHAS424 A Adapter: 0 ID: 0
Режим чтения : ДостоверностьИспользование точного потока : ДаОтключение кэша аудио : ДаИспользование указателей C2 : Нет
Коррекция смещения при чтении : 6Способность читать области Lead-in и Lead-out : НетЗаполнение пропущенных сэмплов тишиной : ДаУдаление блоков с тишиной в начале и конце : НетПри вычислениях CRC использовались нулевые сэмплы : ДаИнтерфейс : Установленный внешний ASPI-интерфейс
Выходной формат : Пользовательский кодировщикВыбранный битрейт : 1024 kBit/sКачество : ВысокийДобавление ID3-тега : НетУтилита сжатия : C:\Program Files\Exact Audio Copy\FLAC\FLAC.EXEДополнительные параметры : -8 -V -T "ARTIST=%artist%" -T "ALBUM=%albumtitle%" -T "DATE=%year%" -T "GENRE=%genre%" -T "COMMENT=ripped by izia1956" %source%
TOC извлечённого CD
Трек | Старт | Длительность | Начальный сектор | Конечный сектор --------------------------------------------------------------------- 1 | 0:00.00 | 3:27.63 | 0 | 15587 2 | 3:27.63 | 3:41.32 | 15588 | 32194 3 | 7:09.20 | 3:33.40 | 32195 | 48209 4 | 10:42.60 | 3:30.70 | 48210 | 64029 5 | 14:13.55 | 3:11.20 | 64030 | 78374 6 | 17:25.00 | 2:22.68 | 78375 | 89092 7 | 19:47.68 | 3:38.02 | 89093 | 105444 8 | 23:25.70 | 3:42.25 | 105445 | 122119 9 | 27:08.20 | 3:29.73 | 122120 | 137867 10 | 30:38.18 | 4:31.52 | 137868 | 158244
Характеристики диапазона извлечения и сообщения об ошибках
Выбранный диапазон
Имя файла D:\BitComet\The Aqua Velvets(flac)\1993 - The Aqua Velvets\The Aqua Velvets - The Aqua Velvets.wav
Пиковый уровень 100.0 % Скорость извлечения 5.1 X Качество диапазона 100.0 % CRC теста 922D2151 CRC копии 922D2151 Копирование... OK
Ошибок не произошло
AccurateRip: сводка
Трек 1 точность не определена (достоверность 6) [B96889AF], AccurateRip вернул [208C8AF4] (AR v2)Трек 2 точность не определена (достоверность 6) [D9ED172F], AccurateRip вернул [3CA9D6D7] (AR v2)Трек 3 точность не определена (достоверность 6) [4A6AFA66], AccurateRip вернул [EC3909F8] (AR v2)Трек 4 точность не определена (достоверность 6) [076A477D], AccurateRip вернул [56D6630E] (AR v2)Трек 5 точность не определена (достоверность 6) [51469D1F], AccurateRip вернул [40A38898] (AR v2)Трек 6 точность не определена (достоверность 6) [248E499E], AccurateRip вернул [AD7F2CB7] (AR v2)Трек 7 точность не определена (достоверность 6) [A30BEE26], AccurateRip вернул [B62AAEBA] (AR v2)Трек 8 точность не определена (достоверность 6) [36396901], AccurateRip вернул [1BA53AD4] (AR v2)Трек 9 точность не определена (достоверность 6) [512110A2], AccurateRip вернул [A2FAC3EF] (AR v2)Трек 10 точность не определена (достоверность 6) [5E6E7859], AccurateRip вернул [A646B4C7] (AR v2)
Ни один трек не прошёл проверки на точностьВ вашей базе может быть иной вариант штамповки диска
Конец отчёта
==== Контрольная сумма отчёта 495B0831B456591C68808DF9E6EC7E4AAA147EF98274050E389E65A6CA86BFF2 ====

Содержание индексной карты (.CUE)

REM GENRE SurfREM DATE 1993REM DISCID 77083D0AREM COMMENT "ExactAudioCopy v1.0b3"PERFORMER "The Aqua Velvets"TITLE "The Aqua Velvets"FILE "The Aqua Velvets - The Aqua Velvets.flac" WAVE TRACK 01 AUDIO TITLE "Bravado" PERFORMER "The Aqua Velvets" INDEX 01 00:00:00 TRACK 02 AUDIO TITLE "Spy in the House of Love" PERFORMER "The Aqua Velvets" INDEX 00 03:26:50 INDEX 01 03:27:63 TRACK 03 AUDIO TITLE "Swampabilly Hop" PERFORMER "The Aqua Velvets" INDEX 00 07:08:63 INDEX 01 07:09:20 TRACK 04 AUDIO TITLE "Spanish Blue" PERFORMER "The Aqua Velvets" INDEX 00 10:41:03 INDEX 01 10:42:60 TRACK 05 AUDIO TITLE "Blue Rhumba" PERFORMER "The Aqua Velvets" INDEX 00 14:12:50 INDEX 01 14:13:55 TRACK 06 AUDIO TITLE "Night in Paamul" PERFORMER "The Aqua Velvets" INDEX 00 17:22:28 INDEX 01 17:25:00 TRACK 07 AUDIO TITLE "Gringo" PERFORMER "The Aqua Velvets" INDEX 01 19:47:68 TRACK 08 AUDIO TITLE "Surf Boogie" PERFORMER "The Aqua Velvets" INDEX 01 23:25:70 TRACK 09 AUDIO TITLE "Beauty and the Beach" PERFORMER "The Aqua Velvets" INDEX 00 27:06:68 INDEX 01 27:08:20 TRACK 10 AUDIO TITLE "Tango de Milo" PERFORMER "The Aqua Velvets" INDEX 01 30:38:18

1995 - Surfmania - 46:41

01. Surfmania (2:28)
02. Mexican Rooftop Afternoon (3:45)
03. Martini Time (4:22)
04. Zamora (4:11)
05. Mastering The Art Of Falling Down (3:11)
06. Martin Denny, Esq. (4:32)
07. Surf Samba (3:14)
08. A Raymond Chandler Evening (3:04)
09. Cabana Del Gringo (3:07)
10. Hawaiian Blue (4:39)
11. Green Sunshine (6:23)
12. Kashmir Sweater (3:09)-

~EAC~

Exact Audio Copy V1.0 beta 3 from 29. August 2011
Отчёт EAC об извлечении, выполненном 27. апреля 2016, 19:14
The Aqua Velvets / Surfmania
Дисковод: ATAPI iHAS424 A Adapter: 0 ID: 0
Режим чтения : ДостоверностьИспользование точного потока : ДаОтключение кэша аудио : ДаИспользование указателей C2 : Нет
Коррекция смещения при чтении : 6Способность читать области Lead-in и Lead-out : НетЗаполнение пропущенных сэмплов тишиной : ДаУдаление блоков с тишиной в начале и конце : НетПри вычислениях CRC использовались нулевые сэмплы : ДаИнтерфейс : Установленный внешний ASPI-интерфейс
Выходной формат : Пользовательский кодировщикВыбранный битрейт : 1024 kBit/sКачество : ВысокийДобавление ID3-тега : НетУтилита сжатия : C:\Program Files\Exact Audio Copy\FLAC\FLAC.EXEДополнительные параметры : -8 -V -T "ARTIST=%artist%" -T "ALBUM=%albumtitle%" -T "DATE=%year%" -T "GENRE=%genre%" -T "COMMENT=ripped by izia1956" %source%
TOC извлечённого CD
Трек | Старт | Длительность | Начальный сектор | Конечный сектор --------------------------------------------------------------------- 1 | 0:00.32 | 2:58.35 | 32 | 13416 2 | 2:58.67 | 3:45.15 | 13417 | 30306 3 | 6:44.07 | 4:22.00 | 30307 | 49956 4 | 11:06.07 | 4:11.63 | 49957 | 68844 5 | 15:17.70 | 3:11.25 | 68845 | 83194 6 | 18:29.20 | 4:32.07 | 83195 | 103601 7 | 23:01.27 | 3:14.43 | 103602 | 118194 8 | 26:15.70 | 3:04.72 | 118195 | 132066 9 | 29:20.67 | 3:07.58 | 132067 | 146149 10 | 32:28.50 | 4:39.50 | 146150 | 167124 11 | 37:08.25 | 6:23.30 | 167125 | 195879 12 | 43:31.55 | 3:09.62 | 195880 | 210116
Характеристики диапазона извлечения и сообщения об ошибках
Выбранный диапазон
Имя файла D:\BitComet\The Aqua Velvets(flac)\1995 - Surfmania\The Aqua Velvets - Surfmania.wav
Пиковый уровень 100.0 % Скорость извлечения 6.0 X Качество диапазона 100.0 % CRC теста C98169C8 CRC копии C98169C8 Копирование... OK
Ошибок не произошло
AccurateRip: сводка
Трек 1 отсутствует в базе данныхТрек 2 отсутствует в базе данныхТрек 3 отсутствует в базе данныхТрек 4 отсутствует в базе данныхТрек 5 отсутствует в базе данныхТрек 6 отсутствует в базе данныхТрек 7 отсутствует в базе данныхТрек 8 отсутствует в базе данныхТрек 9 отсутствует в базе данныхТрек 10 отсутствует в базе данныхТрек 11 отсутствует в базе данныхТрек 12 отсутствует в базе данных
Ни одного трека нет в базе AccurateRip
Конец отчёта
==== Контрольная сумма отчёта 9422ADC4F972A4908D41866932B73682495280EEFF4F1381D5D5E1E182881216 ====

Содержание индексной карты (.CUE)

REM GENRE SurfREM DATE 1995REM DISCID 950AF10CREM COMMENT "ExactAudioCopy v1.0b3"PERFORMER "The Aqua Velvets"TITLE "Surfmania"FILE "The Aqua Velvets - Surfmania.flac" WAVE TRACK 01 AUDIO TITLE "Surfmania" PERFORMER "The Aqua Velvets" INDEX 00 00:00:00 INDEX 01 00:00:32 TRACK 02 AUDIO TITLE "Mexican Rooftop Afternoon" PERFORMER "The Aqua Velvets" INDEX 00 02:57:55 INDEX 01 02:58:67 TRACK 03 AUDIO TITLE "Martini Time" PERFORMER "The Aqua Velvets" INDEX 01 06:44:07 TRACK 04 AUDIO TITLE "Zamora" PERFORMER "The Aqua Velvets" INDEX 00 11:03:54 INDEX 01 11:06:07 TRACK 05 AUDIO TITLE "Mastering The Art Of Falling Down" PERFORMER "The Aqua Velvets" INDEX 00 15:17:34 INDEX 01 15:17:70 TRACK 06 AUDIO TITLE "Martin Denny, Esq." PERFORMER "The Aqua Velvets" INDEX 00 18:28:01 INDEX 01 18:29:20 TRACK 07 AUDIO TITLE "Surf Samba" PERFORMER "The Aqua Velvets" INDEX 00 22:59:34 INDEX 01 23:01:27 TRACK 08 AUDIO TITLE "A Raymond Chandler Evening" PERFORMER "The Aqua Velvets" INDEX 00 26:14:34 INDEX 01 26:15:70 TRACK 09 AUDIO TITLE "Cabana Del Gringo" PERFORMER "The Aqua Velvets" INDEX 00 29:19:06 INDEX 01 29:20:67 TRACK 10 AUDIO TITLE "Hawaiian Blue" PERFORMER "The Aqua Velvets" INDEX 01 32:28:50 TRACK 11 AUDIO TITLE "Green Sunshine" PERFORMER "The Aqua Velvets" INDEX 00 37:07:21 INDEX 01 37:08:25 TRACK 12 AUDIO TITLE "Kashmir Sweater" PERFORMER "The Aqua Velvets" INDEX 01 43:31:55

1996 - Nomad - 48:15

01. Nomad (4:01)
02. Surf Nouveau (3:39)
03. Smoking Panatelas On The Blue Mediterranean Sea (3:04)
04. Holly Tiki (2:29)
05. Snorkle Mask Replica (2:15)
06. Return To Paia (4:16)
07. Ho'okipa (3:56)
08. In A Spanish Mood (6:28)
09. Nervous On Neptune (3:08)
10. Summer At Dreampoint (5:42)
11. Shakahoochie (4:30)
12. Shrunken Head (4:43)-

~EAC~

Exact Audio Copy V1.0 beta 3 from 29. August 2011
Отчёт EAC об извлечении, выполненном 24. апреля 2016, 13:12
The Aqua Velvets / Nomad
Дисковод: PLEXTOR DVDR PX-880SA Adapter: 1 ID: 0
Режим чтения : ДостоверностьИспользование точного потока : ДаОтключение кэша аудио : ДаИспользование указателей C2 : Нет
Коррекция смещения при чтении : 6Способность читать области Lead-in и Lead-out : НетЗаполнение пропущенных сэмплов тишиной : ДаУдаление блоков с тишиной в начале и конце : НетПри вычислениях CRC использовались нулевые сэмплы : ДаИнтерфейс : Установленный внешний ASPI-интерфейс
Выходной формат : Пользовательский кодировщикВыбранный битрейт : 1024 kBit/sКачество : ВысокийДобавление ID3-тега : НетУтилита сжатия : C:\Program Files\Exact Audio Copy\FLAC\FLAC.EXEДополнительные параметры : -8 -V -T "ARTIST=%artist%" -T "ALBUM=%albumtitle%" -T "DATE=%year%" -T "GENRE=%genre%" -T "COMMENT=ripped by izia1956" %source%
TOC извлечённого CD
Трек | Старт | Длительность | Начальный сектор | Конечный сектор --------------------------------------------------------------------- 1 | 0:00.00 | 4:01.20 | 0 | 18094 2 | 4:01.20 | 3:39.25 | 18095 | 34544 3 | 7:40.45 | 3:04.53 | 34545 | 48397 4 | 10:45.23 | 2:29.00 | 48398 | 59572 5 | 13:14.23 | 2:15.00 | 59573 | 69697 6 | 15:29.23 | 4:16.70 | 69698 | 88967 7 | 19:46.18 | 3:56.55 | 88968 | 106722 8 | 23:42.73 | 6:28.12 | 106723 | 135834 9 | 30:11.10 | 3:08.00 | 135835 | 149934 10 | 33:19.10 | 5:42.63 | 149935 | 175647 11 | 39:01.73 | 4:30.15 | 175648 | 195912 12 | 43:32.13 | 4:43.22 | 195913 | 217159
Характеристики диапазона извлечения и сообщения об ошибках
Выбранный диапазон
Имя файла D:\BitComet\The Aqua Velvets(flac)\1996 - Nomad\The Aqua Velvets - Nomad.wav
Пиковый уровень 100.0 % Скорость извлечения 2.9 X Качество диапазона 100.0 % CRC теста 258B7CFE CRC копии 258B7CFE Копирование... OK
Ошибок не произошло
AccurateRip: сводка
Трек 1 : извлечено точно (доверие 12) [096D8BBB] (AR v2)Трек 2 : извлечено точно (доверие 12) [38DB36AA] (AR v2)Трек 3 : извлечено точно (доверие 12) [C8B618CB] (AR v2)Трек 4 : извлечено точно (доверие 12) [8926AB10] (AR v2)Трек 5 : извлечено точно (доверие 12) [01EAEF90] (AR v2)Трек 6 : извлечено точно (доверие 12) [3DAA518E] (AR v2)Трек 7 : извлечено точно (доверие 12) [82D98471] (AR v2)Трек 8 : извлечено точно (доверие 12) [D1785083] (AR v2)Трек 9 : извлечено точно (доверие 12) [DDABCAB6] (AR v2)Трек 10 : извлечено точно (доверие 12) [5394F19F] (AR v2)Трек 11 : извлечено точно (доверие 12) [323E358F] (AR v2)Трек 12 : извлечено точно (доверие 12) [DFBF2526] (AR v2)
Все треки извлечены точно
Конец отчёта
==== Контрольная сумма отчёта FBF75D2A2392213CAA9DAF8F9CEAE0A6FBD661D62CCD7E077190C54C9F6840C4 ====

Содержание индексной карты (.CUE)

REM GENRE SurfREM DATE 1996REM DISCID 910B4F0CREM COMMENT "ExactAudioCopy v1.0b3"PERFORMER "The Aqua Velvets"TITLE "Nomad"FILE "The Aqua Velvets - Nomad.flac" WAVE TRACK 01 AUDIO TITLE "Nomad" PERFORMER "The Aqua Velvets" INDEX 01 00:00:00 TRACK 02 AUDIO TITLE "Surf Nouveau" PERFORMER "The Aqua Velvets" INDEX 00 03:56:48 INDEX 01 04:01:20 TRACK 03 AUDIO TITLE "Smoking Panatelas on the Blue Mediterranean Sea" PERFORMER "The Aqua Velvets" INDEX 00 07:34:60 INDEX 01 07:40:45 TRACK 04 AUDIO TITLE "Holly Tiki" PERFORMER "The Aqua Velvets" INDEX 00 10:41:38 INDEX 01 10:45:23 TRACK 05 AUDIO TITLE "Snorkel Mask Replica" PERFORMER "The Aqua Velvets" INDEX 00 13:10:60 INDEX 01 13:14:23 TRACK 06 AUDIO TITLE "Return to Paia" PERFORMER "The Aqua Velvets" INDEX 00 15:25:60 INDEX 01 15:29:23 TRACK 07 AUDIO TITLE "Ho'okipa" PERFORMER "The Aqua Velvets" INDEX 00 19:43:48 INDEX 01 19:46:18 TRACK 08 AUDIO TITLE "In a Spanish Mood" PERFORMER "The Aqua Velvets" INDEX 00 23:38:35 INDEX 01 23:42:73 TRACK 09 AUDIO TITLE "Nervous on Neptune" PERFORMER "The Aqua Velvets" INDEX 00 30:03:60 INDEX 01 30:11:10 TRACK 10 AUDIO TITLE "Summer at Dreampoint" PERFORMER "The Aqua Velvets" INDEX 00 33:13:10 INDEX 01 33:19:10 TRACK 11 AUDIO TITLE "Shakahoochie" PERFORMER "The Aqua Velvets" INDEX 00 38:56:50 INDEX 01 39:01:73 TRACK 12 AUDIO TITLE "Shrunken Head" PERFORMER "The Aqua Velvets" INDEX 00 43:26:30 INDEX 01 43:32:13

1997 - Guitar Noir - 51:50

01. Guitar Noir (4:41)
02. Prelude To Subterranea (0:39)
03. Subterranea (2:41)
04. Mysterious Mambo (4:02)
05. Casbah Club (5:08)
06. Venetian Silhouettes (3:39)
07. Time Trapped (1:06)
08. Day In The Life Of A Private Eye (4:07)
09. Slow Dance With A Fast Girl (3:10)
10. Twillight Of The Hepcats (4:00)
11. Aqua Nova (2:44)
12. Sliver Of Moon (5:29)
13. Moodswing Sonata (4:14)
14. Mermaids After Midnight (6:04)-

~EAC~

Exact Audio Copy V1.0 beta 3 from 29. August 2011
Отчёт EAC об извлечении, выполненном 30. апреля 2016, 11:39
The Aqua Velvets / Guitar Noir
Дисковод: ATAPI iHAS424 A Adapter: 0 ID: 0
Режим чтения : ДостоверностьИспользование точного потока : ДаОтключение кэша аудио : ДаИспользование указателей C2 : Нет
Коррекция смещения при чтении : 6Способность читать области Lead-in и Lead-out : НетЗаполнение пропущенных сэмплов тишиной : ДаУдаление блоков с тишиной в начале и конце : НетПри вычислениях CRC использовались нулевые сэмплы : ДаИнтерфейс : Установленный внешний ASPI-интерфейс
Выходной формат : Пользовательский кодировщикВыбранный битрейт : 1024 kBit/sКачество : ВысокийДобавление ID3-тега : НетУтилита сжатия : C:\Program Files\Exact Audio Copy\FLAC\FLAC.EXEДополнительные параметры : -8 -V -T "ARTIST=%artist%" -T "ALBUM=%albumtitle%" -T "DATE=%year%" -T "GENRE=%genre%" -T "COMMENT=ripped by izia1956" %source%
TOC извлечённого CD
Трек | Старт | Длительность | Начальный сектор | Конечный сектор --------------------------------------------------------------------- 1 | 0:00.00 | 4:41.55 | 0 | 21129 2 | 4:41.55 | 0:39.62 | 21130 | 24116 3 | 5:21.42 | 2:41.60 | 24117 | 36251 4 | 8:03.27 | 4:02.05 | 36252 | 54406 5 | 12:05.32 | 5:08.38 | 54407 | 77544 6 | 17:13.70 | 3:39.62 | 77545 | 94031 7 | 20:53.57 | 1:06.23 | 94032 | 99004 8 | 22:00.05 | 4:07.12 | 99005 | 117541 9 | 26:07.17 | 3:10.43 | 117542 | 131834 10 | 29:17.60 | 4:00.52 | 131835 | 149886 11 | 33:18.37 | 2:44.00 | 149887 | 162186 12 | 36:02.37 | 5:29.28 | 162187 | 186889 13 | 41:31.65 | 4:14.07 | 186890 | 205946 14 | 45:45.72 | 6:04.18 | 205947 | 233264
Характеристики диапазона извлечения и сообщения об ошибках
Выбранный диапазон
Имя файла D:\BitComet\The Aqua Velvets(flac)\1997 - Guitar Noir\The Aqua Velvets - Guitar Noir.wav
Пиковый уровень 100.0 % Скорость извлечения 5.6 X Качество диапазона 99.9 % CRC теста 677BCD71 CRC копии 677BCD71 Копирование... OK
Ошибок не произошло
AccurateRip: сводка
Трек 1 : извлечено точно (доверие 4) [C76F41AC] (AR v2)Трек 2 : извлечено точно (доверие 4) [8C102B4E] (AR v2)Трек 3 : извлечено точно (доверие 4) [D2DF72E8] (AR v2)Трек 4 : извлечено точно (доверие 4) [C257F8E8] (AR v2)Трек 5 : извлечено точно (доверие 4) [284B73C0] (AR v2)Трек 6 : извлечено точно (доверие 4) [3B7F9862] (AR v2)Трек 7 : извлечено точно (доверие 4) [15D6D45F] (AR v2)Трек 8 : извлечено точно (доверие 4) [EE4F610D] (AR v2)Трек 9 : извлечено точно (доверие 4) [5D5F0E8E] (AR v2)Трек 10 : извлечено точно (доверие 4) [F044F56B] (AR v2)Трек 11 : извлечено точно (доверие 4) [C38DE155] (AR v2)Трек 12 : извлечено точно (доверие 4) [77FE27D6] (AR v2)Трек 13 : извлечено точно (доверие 4) [D261E634] (AR v2)Трек 14 : извлечено точно (доверие 4) [F44D1144] (AR v2)
Все треки извлечены точно
Конец отчёта
==== Контрольная сумма отчёта DFF5E4809BD749B7EFFD8D8C8C7D0CECD80F0357CBC5BBE9F832E6D6E5429F3C ====

Содержание индексной карты (.CUE)

REM GENRE "Surf Noir"REM DATE 1997REM DISCID B60C260EREM COMMENT "ExactAudioCopy v1.0b3"PERFORMER "The Aqua Velvets"TITLE "Guitar Noir"FILE "The Aqua Velvets - Guitar Noir.flac" WAVE TRACK 01 AUDIO TITLE "Guitar Noir" PERFORMER "The Aqua Velvets" INDEX 01 00:00:00 TRACK 02 AUDIO TITLE "Prelude To Subterranea" PERFORMER "The Aqua Velvets" INDEX 00 04:38:70 INDEX 01 04:41:55 TRACK 03 AUDIO TITLE "Subterranea" PERFORMER "The Aqua Velvets" INDEX 01 05:21:42 TRACK 04 AUDIO TITLE "Mysterious Mambo" PERFORMER "The Aqua Velvets" INDEX 00 08:02:52 INDEX 01 08:03:27 TRACK 05 AUDIO TITLE "Casbah Club" PERFORMER "The Aqua Velvets" INDEX 00 12:03:50 INDEX 01 12:05:32 TRACK 06 AUDIO TITLE "Venetian Silhouettes" PERFORMER "The Aqua Velvets" INDEX 00 17:12:45 INDEX 01 17:13:70 TRACK 07 AUDIO TITLE "Time Trapped" PERFORMER "The Aqua Velvets" INDEX 00 20:51:15 INDEX 01 20:53:57 TRACK 08 AUDIO TITLE "Day In The Life Of A Private Eye" PERFORMER "The Aqua Velvets" INDEX 00 21:56:47 INDEX 01 22:00:05 TRACK 09 AUDIO TITLE "Slow Dance With A Fast Girl" PERFORMER "The Aqua Velvets" INDEX 00 26:04:70 INDEX 01 26:07:17 TRACK 10 AUDIO TITLE "Twillight Of The Hepcats" PERFORMER "The Aqua Velvets" INDEX 00 29:15:15 INDEX 01 29:17:60 TRACK 11 AUDIO TITLE "Aqua Nova" PERFORMER "The Aqua Velvets" INDEX 00 33:14:70 INDEX 01 33:18:37 TRACK 12 AUDIO TITLE "Sliver Of Moon" PERFORMER "The Aqua Velvets" INDEX 00 35:59:70 INDEX 01 36:02:37 TRACK 13 AUDIO TITLE "Moodswing Sonata" PERFORMER "The Aqua Velvets" INDEX 00 41:28:65 INDEX 01 41:31:65 TRACK 14 AUDIO TITLE "Mermaids After Midnight" PERFORMER "The Aqua Velvets" INDEX 00 45:42:32 INDEX 01 45:45:72

1999 - Miles Corbin - Sounds From the Tiki Hut - 39:29

01. Tiki Hut (3:43)
02. Coconut Syrup Daydream Skies (5:13)
03. Sister Moonlight (3:19)
04. Indian Summer (2:51)
05. Quintana Roo (4:25)
06. Enchanted Island (3:30)
07. Beats Around the Bush (5:23)
08. Kahuna (3:52)
09. California Slack (2:29)
10. Trail To Magic Falls (4:39)-

~EAC~

Exact Audio Copy V1.0 beta 3 from 29. August 2011
Отчёт EAC об извлечении, выполненном 24. апреля 2016, 13:52
Miles Corbin / Sounds From the Tiki Hut
Дисковод: PLEXTOR DVDR PX-880SA Adapter: 1 ID: 0
Режим чтения : ДостоверностьИспользование точного потока : ДаОтключение кэша аудио : ДаИспользование указателей C2 : Нет
Коррекция смещения при чтении : 6Способность читать области Lead-in и Lead-out : НетЗаполнение пропущенных сэмплов тишиной : ДаУдаление блоков с тишиной в начале и конце : НетПри вычислениях CRC использовались нулевые сэмплы : ДаИнтерфейс : Установленный внешний ASPI-интерфейс
Выходной формат : Пользовательский кодировщикВыбранный битрейт : 1024 kBit/sКачество : ВысокийДобавление ID3-тега : НетУтилита сжатия : C:\Program Files\Exact Audio Copy\FLAC\FLAC.EXEДополнительные параметры : -8 -V -T "ARTIST=%artist%" -T "ALBUM=%albumtitle%" -T "DATE=%year%" -T "GENRE=%genre%" -T "COMMENT=ripped by izia1956" %source%
TOC извлечённого CD
Трек | Старт | Длительность | Начальный сектор | Конечный сектор --------------------------------------------------------------------- 1 | 0:00.00 | 3:43.37 | 0 | 16761 2 | 3:43.37 | 5:13.60 | 16762 | 40296 3 | 8:57.22 | 3:19.08 | 40297 | 55229 4 | 12:16.30 | 2:51.47 | 55230 | 68101 5 | 15:08.02 | 4:25.60 | 68102 | 88036 6 | 19:33.62 | 3:30.35 | 88037 | 103821 7 | 23:04.22 | 5:23.45 | 103822 | 128091 8 | 28:27.67 | 3:52.05 | 128092 | 145496 9 | 32:19.72 | 2:29.65 | 145497 | 156736 10 | 34:49.62 | 4:39.65 | 156737 | 177726
Характеристики диапазона извлечения и сообщения об ошибках
Выбранный диапазон
Имя файла D:\BitComet\The Aqua Velvets(flac)\1999 - Miles Corbin - Sounds From the Tiki Hut\Miles Corbin - Sounds From the Tiki Hut.wav
Пиковый уровень 96.9 % Скорость извлечения 2.7 X Качество диапазона 100.0 % CRC теста 4F940EF1 CRC копии 4F940EF1 Копирование... OK
Ошибок не произошло
AccurateRip: сводка
Трек 1 точность не определена (достоверность 2) [301D8890], AccurateRip вернул [55A2D388] (AR v2)Трек 2 точность не определена (достоверность 2) [585BB912], AccurateRip вернул [E1A5FA9C] (AR v2)Трек 3 точность не определена (достоверность 2) [BE81798F], AccurateRip вернул [C5BD204F] (AR v2)Трек 4 точность не определена (достоверность 2) [FC4D1B0B], AccurateRip вернул [AFCECDDB] (AR v2)Трек 5 точность не определена (достоверность 2) [D3C3E57C], AccurateRip вернул [174F03A1] (AR v2)Трек 6 точность не определена (достоверность 2) [D177EA6C], AccurateRip вернул [950768EE] (AR v2)Трек 7 точность не определена (достоверность 2) [EB769925], AccurateRip вернул [861FEB09] (AR v2)Трек 8 точность не определена (достоверность 2) [E1F87580], AccurateRip вернул [2F28954F] (AR v2)Трек 9 точность не определена (достоверность 2) [BFA9AEE9], AccurateRip вернул [0D5FF3D9] (AR v2)Трек 10 точность не определена (достоверность 2) [0FCFBF2B], AccurateRip вернул [F74A1413] (AR v2)
Ни один трек не прошёл проверки на точностьВ вашей базе может быть иной вариант штамповки диска
Конец отчёта
==== Контрольная сумма отчёта C6C24E00C7A97531EC7C84717F9386999DC4D755122A363755B19EB5FABAF468 ====

Содержание индексной карты (.CUE)

REM GENRE SurfREM DATE 1999REM DISCID 8409410AREM COMMENT "ExactAudioCopy v1.0b3"PERFORMER "Miles Corbin"TITLE "Sounds From the Tiki Hut"FILE "Miles Corbin - Sounds From the Tiki Hut.flac" WAVE TRACK 01 AUDIO TITLE "Tiki Hut" PERFORMER "Miles Corbin" INDEX 01 00:00:00 TRACK 02 AUDIO TITLE "Coconut Syrup Daydream Skies" PERFORMER "Miles Corbin" INDEX 00 03:39:70 INDEX 01 03:43:37 TRACK 03 AUDIO TITLE "Sister Moonlight" PERFORMER "Miles Corbin" INDEX 00 08:54:55 INDEX 01 08:57:22 TRACK 04 AUDIO TITLE "Indian Summer" PERFORMER "Miles Corbin" INDEX 00 12:13:62 INDEX 01 12:16:30 TRACK 05 AUDIO TITLE "Quintana Roo" PERFORMER "Miles Corbin" INDEX 00 15:05:35 INDEX 01 15:08:02 TRACK 06 AUDIO TITLE "Enchanted Island" PERFORMER "Miles Corbin" INDEX 00 19:31:59 INDEX 01 19:33:62 TRACK 07 AUDIO TITLE "Beats Around the Bush" PERFORMER "Miles Corbin" INDEX 00 23:01:55 INDEX 01 23:04:22 TRACK 08 AUDIO TITLE "Kahuna" PERFORMER "Miles Corbin" INDEX 00 28:25:25 INDEX 01 28:27:67 TRACK 09 AUDIO TITLE "California Slack" PERFORMER "Miles Corbin" INDEX 00 32:17:30 INDEX 01 32:19:72 TRACK 10 AUDIO TITLE "Trail To Magic Falls" PERFORMER "Miles Corbin" INDEX 00 34:47:20 INDEX 01 34:49:62

2008 - Reaching Shangri-La - 37:20

01. Reaching Shangri-La (4:52)
02. Leader Of The Pack (5:43)
03. Remember Walking In The Sand (3:38)
04. Shang Ten (4:34)
05. Lost Horizon (4:38)
06. Out In The Streets (4:32)
07. Right Now Not Later (5:09)
08. From Paradise With Luv (4:10)-

~EAC~

Exact Audio Copy V1.0 beta 3 from 29. August 2011
Отчёт EAC об извлечении, выполненном 24. апреля 2016, 10:51
The Aqua Velvets / Reaching Shangri-La
Дисковод: ATAPI iHAS424 A Adapter: 0 ID: 0
Режим чтения : ДостоверностьИспользование точного потока : ДаОтключение кэша аудио : ДаИспользование указателей C2 : Нет
Коррекция смещения при чтении : 6Способность читать области Lead-in и Lead-out : НетЗаполнение пропущенных сэмплов тишиной : ДаУдаление блоков с тишиной в начале и конце : НетПри вычислениях CRC использовались нулевые сэмплы : ДаИнтерфейс : Установленный внешний ASPI-интерфейс
Выходной формат : Пользовательский кодировщикВыбранный битрейт : 1024 kBit/sКачество : ВысокийДобавление ID3-тега : НетУтилита сжатия : C:\Program Files\Exact Audio Copy\FLAC\FLAC.EXEДополнительные параметры : -8 -V -T "ARTIST=%artist%" -T "ALBUM=%albumtitle%" -T "DATE=%year%" -T "GENRE=%genre%" -T "COMMENT=ripped by izia1956" %source%
TOC извлечённого CD
Трек | Старт | Длительность | Начальный сектор | Конечный сектор --------------------------------------------------------------------- 1 | 0:00.00 | 4:52.65 | 0 | 21964 2 | 4:52.65 | 5:43.02 | 21965 | 47691 3 | 10:35.67 | 3:38.72 | 47692 | 64113 4 | 14:14.64 | 4:34.74 | 64114 | 84737 5 | 18:49.63 | 4:38.20 | 84738 | 105607 6 | 23:28.08 | 4:32.31 | 105608 | 126038 7 | 28:00.39 | 5:09.64 | 126039 | 149277 8 | 33:10.28 | 4:10.30 | 149278 | 168057
Характеристики диапазона извлечения и сообщения об ошибках
Выбранный диапазон
Имя файла D:\BitComet\The Aqua Velvets(flac)\2008 - Reaching Shangri-La\The Aqua Velvets - Reaching Shangri-La.wav
Пиковый уровень 92.6 % Скорость извлечения 5.7 X Качество диапазона 100.0 % CRC теста 5BFE4C1D CRC копии 5BFE4C1D Копирование... OK
Ошибок не произошло
AccurateRip: сводка
Трек 1 : извлечено точно (доверие 1) [C4666EAB] (AR v2)Трек 2 : извлечено точно (доверие 1) [B55F581D] (AR v2)Трек 3 : извлечено точно (доверие 1) [E213A750] (AR v2)Трек 4 : извлечено точно (доверие 1) [F5935EFA] (AR v2)Трек 5 : извлечено точно (доверие 1) [CB0CC6EC] (AR v2)Трек 6 : извлечено точно (доверие 1) [D71DA474] (AR v2)Трек 7 : извлечено точно (доверие 1) [9EED1DCD] (AR v2)Трек 8 : извлечено точно (доверие 1) [B1382BA6] (AR v2)
Все треки извлечены точно
Конец отчёта
==== Контрольная сумма отчёта 01BFD9079867F74C1846EF5FB6CE91A6E43E94538C137BA238FD0DE26659800F ====

Содержание индексной карты (.CUE)

REM GENRE "Instrumental Rock, Surf"REM DATE 2008REM DISCID 6608C008REM COMMENT "ExactAudioCopy v1.0b3"PERFORMER "The Aqua Velvets"TITLE "Reaching Shangri-La"FILE "The Aqua Velvets - Reaching Shangri-La.flac" WAVE TRACK 01 AUDIO TITLE "Reaching Shangri-La" PERFORMER "The Aqua Velvets" INDEX 01 00:00:00 TRACK 02 AUDIO TITLE "Leader Of The Pack" PERFORMER "The Aqua Velvets" INDEX 00 04:50:64 INDEX 01 04:52:65 TRACK 03 AUDIO TITLE "Remember Walking In The Sand" PERFORMER "The Aqua Velvets" INDEX 00 10:33:66 INDEX 01 10:35:67 TRACK 04 AUDIO TITLE "Shang Ten" PERFORMER "The Aqua Velvets" INDEX 00 14:12:63 INDEX 01 14:14:64 TRACK 05 AUDIO TITLE "Lost Horizon" PERFORMER "The Aqua Velvets" INDEX 00 18:47:62 INDEX 01 18:49:63 TRACK 06 AUDIO TITLE "Out In The Streets" PERFORMER "The Aqua Velvets" INDEX 00 23:26:07 INDEX 01 23:28:08 TRACK 07 AUDIO TITLE "Right Now Not Later" PERFORMER "The Aqua Velvets" INDEX 00 27:58:38 INDEX 01 28:00:39 TRACK 08 AUDIO TITLE "From Paradise With Luv" PERFORMER "The Aqua Velvets" INDEX 00 33:08:27 INDEX 01 33:10:28

2010 - Tiki Beat - 57:03

01. Tiki Beat (8:36)
02. Palm Shadows (10:00)
03. Big Island Romp (8:40)
04. Napili Nocturne (5:04)
05. Femme Fatale (4:41)
06. They Drive By Night (4:39)
07. Sunlight Dances Upon Her Hair (2:31)
08. Surf Noir Kings Ride Again (4:14)
09. Tiki Noir (4:37)
10. Tiki Beat (radio edit) (3:57)-

~EAC~

Exact Audio Copy V1.0 beta 3 from 29. August 2011
Отчёт EAC об извлечении, выполненном 24. апреля 2016, 11:38
The Aqua Velvets / "Tiki Beat"
Дисковод: ATAPI iHAS424 A Adapter: 0 ID: 0
Режим чтения : ДостоверностьИспользование точного потока : ДаОтключение кэша аудио : ДаИспользование указателей C2 : Нет
Коррекция смещения при чтении : 6Способность читать области Lead-in и Lead-out : НетЗаполнение пропущенных сэмплов тишиной : ДаУдаление блоков с тишиной в начале и конце : НетПри вычислениях CRC использовались нулевые сэмплы : ДаИнтерфейс : Установленный внешний ASPI-интерфейс
Выходной формат : Пользовательский кодировщикВыбранный битрейт : 1024 kBit/sКачество : ВысокийДобавление ID3-тега : НетУтилита сжатия : C:\Program Files\Exact Audio Copy\FLAC\FLAC.EXEДополнительные параметры : -8 -V -T "ARTIST=%artist%" -T "ALBUM=%albumtitle%" -T "DATE=%year%" -T "GENRE=%genre%" -T "COMMENT=ripped by izia1956" %source%
TOC извлечённого CD
Трек | Старт | Длительность | Начальный сектор | Конечный сектор --------------------------------------------------------------------- 1 | 0:00.00 | 8:36.28 | 0 | 38727 2 | 8:36.28 | 10:00.68 | 38728 | 83795 3 | 18:37.21 | 8:40.16 | 83796 | 122811 4 | 27:17.37 | 5:04.52 | 122812 | 145663 5 | 32:22.14 | 4:41.63 | 145664 | 166801 6 | 37:04.02 | 4:39.17 | 166802 | 187743 7 | 41:43.19 | 2:31.53 | 187744 | 199121 8 | 44:14.72 | 4:14.02 | 199122 | 218173 9 | 48:28.74 | 4:37.09 | 218174 | 238957 10 | 53:06.08 | 3:57.53 | 238958 | 256785
Характеристики диапазона извлечения и сообщения об ошибках
Выбранный диапазон
Имя файла D:\BitComet\The Aqua Velvets(flac)\2010 - Tiki Beat\The Aqua Velvets - ''Tiki Beat''.wav
Пиковый уровень 100.0 % Скорость извлечения 6.3 X Качество диапазона 100.0 % CRC теста B586FE28 CRC копии B586FE28 Копирование... OK
Ошибок не произошло
AccurateRip: сводка
Трек 1 : извлечено точно (доверие 1) [0EB73419] (AR v2)Трек 2 : извлечено точно (доверие 1) [7D83DB3E] (AR v2)Трек 3 : извлечено точно (доверие 1) [C558C5D8] (AR v2)Трек 4 : извлечено точно (доверие 1) [DFF4D04E] (AR v2)Трек 5 : извлечено точно (доверие 1) [7108E26C] (AR v2)Трек 6 : извлечено точно (доверие 1) [F618ECAB] (AR v2)Трек 7 : извлечено точно (доверие 1) [6560A4F6] (AR v2)Трек 8 : извлечено точно (доверие 1) [13FEB7C1] (AR v2)Трек 9 : извлечено точно (доверие 1) [C52E4FE6] (AR v2)Трек 10 : извлечено точно (доверие 1) [D95DD0A8] (AR v2)
Все треки извлечены точно
Конец отчёта
==== Контрольная сумма отчёта 7F78D5B764B4BFC9F6F62B8538FFB0DFAA59EEB46018FDFB182A394C36563304 ====

Содержание индексной карты (.CUE)

REM GENRE "Surf, Instrumental Rock"REM DATE 2010REM DISCID 8C0D5F0AREM COMMENT "ExactAudioCopy v1.0b3"PERFORMER "The Aqua Velvets"TITLE "'Tiki Beat'"FILE "The Aqua Velvets - ''Tiki Beat''.flac" WAVE TRACK 01 AUDIO TITLE "Tiki Beat" PERFORMER "The Aqua Velvets" INDEX 01 00:00:00 TRACK 02 AUDIO TITLE "Palm Shadows" PERFORMER "The Aqua Velvets" INDEX 00 08:34:26 INDEX 01 08:36:28 TRACK 03 AUDIO TITLE "Big Island Romp" PERFORMER "The Aqua Velvets" INDEX 00 18:35:21 INDEX 01 18:37:21 TRACK 04 AUDIO TITLE "Napili Nocturne" PERFORMER "The Aqua Velvets" INDEX 00 27:15:37 INDEX 01 27:17:37 TRACK 05 AUDIO TITLE "Femme Fatale" PERFORMER "The Aqua Velvets" INDEX 00 32:20:14 INDEX 01 32:22:14 TRACK 06 AUDIO TITLE "They Drive By Night" PERFORMER "The Aqua Velvets" INDEX 00 37:02:02 INDEX 01 37:04:02 TRACK 07 AUDIO TITLE "Sunlight Dances Upon Her Hair" PERFORMER "The Aqua Velvets" INDEX 00 41:41:19 INDEX 01 41:43:19 TRACK 08 AUDIO TITLE "Surf Noir Kings Ride Again" PERFORMER "The Aqua Velvets" INDEX 00 44:12:72 INDEX 01 44:14:72 TRACK 09 AUDIO TITLE "Tiki Noir" PERFORMER "The Aqua Velvets" INDEX 00 48:26:74 INDEX 01 48:28:74 TRACK 10 AUDIO TITLE "Tiki Beat (radio edit)" PERFORMER "The Aqua Velvets" INDEX 00 53:04:08 INDEX 01 53:06:08

2015 - El Morocco - 56:57

01. El Morocco (5:00)
02. Noir With Light (3:37)
03. Hollowbody and the F Holes (4:01)
04. Stella (4:03)
05. Swaying Palms (Acoustic) (4:04)
06. Mambo Jungle (4:32)
07. The Big Sea (Moderato) (4:33)
08. Girl With the Turkish Shoes (2:36)
09. Spy Theme Seven (4:03)
10. Flamenco Beguine (4:19)
11. The Big Sea (Uptempo) (5:36)
12. Rumba Twang (3:35)
13. Swaying Palms (Electric) (4:12)
14. Sunland (2:38)-

~EAC~

Exact Audio Copy V1.0 beta 3 from 29. August 2011
Отчёт EAC об извлечении, выполненном 24. апреля 2016, 12:05
The Aqua Velvets / El Morocco
Дисковод: ATAPI iHAS424 A Adapter: 0 ID: 0
Режим чтения : ДостоверностьИспользование точного потока : ДаОтключение кэша аудио : ДаИспользование указателей C2 : Нет
Коррекция смещения при чтении : 6Способность читать области Lead-in и Lead-out : НетЗаполнение пропущенных сэмплов тишиной : ДаУдаление блоков с тишиной в начале и конце : НетПри вычислениях CRC использовались нулевые сэмплы : ДаИнтерфейс : Установленный внешний ASPI-интерфейс
Выходной формат : Пользовательский кодировщикВыбранный битрейт : 1024 kBit/sКачество : ВысокийДобавление ID3-тега : НетУтилита сжатия : C:\Program Files\Exact Audio Copy\FLAC\FLAC.EXEДополнительные параметры : -8 -V -T "ARTIST=%artist%" -T "ALBUM=%albumtitle%" -T "DATE=%year%" -T "GENRE=%genre%" -T "COMMENT=ripped by izia1956" %source%
TOC извлечённого CD
Трек | Старт | Длительность | Начальный сектор | Конечный сектор --------------------------------------------------------------------- 1 | 0:00.00 | 5:00.60 | 0 | 22559 2 | 5:00.60 | 3:37.42 | 22560 | 38876 3 | 8:38.27 | 4:01.10 | 38877 | 56961 4 | 12:39.37 | 4:03.68 | 56962 | 75254 5 | 16:43.30 | 4:04.71 | 75255 | 93625 6 | 20:48.26 | 4:32.37 | 93626 | 114062 7 | 25:20.63 | 4:33.63 | 114063 | 134600 8 | 29:54.51 | 2:36.01 | 134601 | 146301 9 | 32:30.52 | 4:03.53 | 146302 | 164579 10 | 36:34.30 | 4:19.22 | 164580 | 184026 11 | 40:53.52 | 5:36.52 | 184027 | 209278 12 | 46:30.29 | 3:35.09 | 209279 | 225412 13 | 50:05.38 | 4:12.68 | 225413 | 244380 14 | 54:18.31 | 2:38.58 | 244381 | 256288
Характеристики диапазона извлечения и сообщения об ошибках
Выбранный диапазон
Имя файла D:\BitComet\The Aqua Velvets(flac)\2015 - El Morocco\The Aqua Velvets - El Morocco.wav
Пиковый уровень 100.0 % Скорость извлечения 6.3 X Качество диапазона 100.0 % CRC теста FB2AB9D8 CRC копии FB2AB9D8 Копирование... OK
Ошибок не произошло
AccurateRip: сводка
Трек 1 отсутствует в базе данныхТрек 2 отсутствует в базе данныхТрек 3 отсутствует в базе данныхТрек 4 отсутствует в базе данныхТрек 5 отсутствует в базе данныхТрек 6 отсутствует в базе данныхТрек 7 отсутствует в базе данныхТрек 8 отсутствует в базе данныхТрек 9 отсутствует в базе данныхТрек 10 отсутствует в базе данныхТрек 11 отсутствует в базе данныхТрек 12 отсутствует в базе данныхТрек 13 отсутствует в базе данныхТрек 14 отсутствует в базе данных
Ни одного трека нет в базе AccurateRip
Конец отчёта
==== Контрольная сумма отчёта 140B449812F6A301D2C512F4EAD8A52CF37410AFF8901B2626495C7F8D14EAE2 ====

Содержание индексной карты (.CUE)

REM GENRE "Surf, Instrumental Rock"REM DATE 2015REM DISCID A70D590EREM COMMENT "ExactAudioCopy v1.0b3"PERFORMER "The Aqua Velvets"TITLE "El Morocco"FILE "The Aqua Velvets - El Morocco.flac" WAVE TRACK 01 AUDIO TITLE "El Morocco" PERFORMER "The Aqua Velvets" FLAGS DCP INDEX 01 00:00:00 TRACK 02 AUDIO TITLE "Noir With Light" PERFORMER "The Aqua Velvets" FLAGS DCP INDEX 01 05:00:60 TRACK 03 AUDIO TITLE "Hollowbody and the F Holes" PERFORMER "The Aqua Velvets" FLAGS DCP INDEX 01 08:38:27 TRACK 04 AUDIO TITLE "Stella" PERFORMER "The Aqua Velvets" FLAGS DCP INDEX 01 12:39:37 TRACK 05 AUDIO TITLE "Swaying Palms (Acoustic)" PERFORMER "The Aqua Velvets" FLAGS DCP INDEX 01 16:43:30 TRACK 06 AUDIO TITLE "Mambo Jungle" PERFORMER "The Aqua Velvets" FLAGS DCP INDEX 01 20:48:26 TRACK 07 AUDIO TITLE "The Big Sea (Moderato)" PERFORMER "The Aqua Velvets" FLAGS DCP INDEX 01 25:20:63 TRACK 08 AUDIO TITLE "Girl With the Turkish Shoes" PERFORMER "The Aqua Velvets" FLAGS DCP INDEX 01 29:54:51 TRACK 09 AUDIO TITLE "Spy Theme Seven" PERFORMER "The Aqua Velvets" FLAGS DCP INDEX 01 32:30:52 TRACK 10 AUDIO TITLE "Flamenco Beguine" PERFORMER "The Aqua Velvets" FLAGS DCP INDEX 01 36:34:30 TRACK 11 AUDIO TITLE "The Big Sea (Uptempo)" PERFORMER "The Aqua Velvets" FLAGS DCP INDEX 01 40:53:52 TRACK 12 AUDIO TITLE "Rumba Twang" PERFORMER "The Aqua Velvets" FLAGS DCP INDEX 01 46:30:29 TRACK 13 AUDIO TITLE "Swaying Palms (Electric)" PERFORMER "The Aqua Velvets" FLAGS DCP INDEX 01 50:05:38 TRACK 14 AUDIO TITLE "Sunland" PERFORMER "The Aqua Velvets" FLAGS DCP INDEX 01 54:18:31
Доп. информация: ©СЁРФ-Марафон продолжает:The Aqua Velvets!!!
Вашему вниманию предсталена Коллекция из 8 альбомов!!!
PS. Очень долго собирал, но пока что не все.
Любители СЁРФа и иструментального рока это музыка для ВАС!!!
Сканы в папке!!!
PS. Очень хотелось бы услышать Ваше мнение которое я очень ценю!!!
Other forum [Profile] [PM]
Display posts from previous:    
Reply to topic

The time now is: Today 15:19

All times are GMT + 3 Hours



You cannot post new topics in this forum
You cannot reply to topics in this forum
You cannot edit your posts in this forum
You cannot delete your posts in this forum
You cannot vote in polls in this forum
You cannot attach files in this forum
You cannot download files in this forum