Today is a free download without charge Download

Ведьма (Дмитрий Федоров) [2015, Россия, драма, триллер, HDTV 1080i]

Reply to topic
 
Author
Message

Omen ®

Longevity: 6 years 8 months

Posts: 181090

Торрент-статистика

Post 18-Jun-2016 06:33

[Quote]

Ведьма- -Страна: Россия
Жанр: драма, триллер
Год выпуска: 2015
Производство: «кинокомпания "Ракурс"»
Продолжительность: 01:27:02
Оригинальная аудиодорожка: русский
Cубтитры: нет-Режиссер: Дмитрий Федоров-В ролях:
Мария Баева, Анатолий Горячев, Дарья Екамасова, Пётр Коврижных, Ольга Сырцова,
Всеволод Николаев, Полина Шашуро, Максим Максимов, Софи Шуткина, Маргарита Спасибо-Описание:
Действие картины происходит в летнем молодёжном лагере у моря. Тоня — тихая, замкнутая и доверчивая девочка становится соседкой Людки — яркой, сильной и расчетливой девицы. Они влюбляются в одного мальчика. Кажется, что у робкой Тони нет никаких шансов против сексуальной Людки, но вдруг выясняется, что Тоня обладает сверхъестественными способностями, которые не может контролировать. Нелюдимый затравленный подросток, не понимающий природу своей страшной силы. Окружающие считают её самой настоящей ведьмой, не подозревая, что на самом деле ведьма не она… Для кого-то эти каникулы станут последними, а те, кто смогут выжить — никогда уже не станут прежними…-Возраст: 16+-Качество: HDTV (1080i)
Формат: TS
Видео кодек: AVC
Аудио кодек: MPEG Audio

Видео: AVC, 1920 х 1080 (16:9), 25,000 кадр/сек, 7 867 Кбит/сек, 0.152 bit/pixel
Аудио: MPEG Audio 2, 48000 Hz, 192 Kbps, 2 канала
-

MediaInfo

General
ID : 1 (0x1)
Complete name : D:\Раздачи\Ведьма HDTV (1080i)\Ведьма HDTV (1080i).ts
Format : MPEG-TS
File size : 5.16 GiB
Duration : 1h 27mn
Overall bit rate mode : Variable
Overall bit rate : 8 480 Kbps
Video
ID : 2311 (0x907)
Menu ID : 1013 (0x3F5)
Format : AVC
Format/Info : Advanced Video Codec
Format profile : High@L4
Format settings, CABAC : Yes
Format settings, ReFrames : 4 frames
Codec ID : 27
Duration : 1h 27mn
Bit rate : 7 867 Kbps
Width : 1 920 pixels
Height : 1 080 pixels
Display aspect ratio : 16:9
Frame rate : 25.000 fps
Color space : YUV
Chroma subsampling : 4:2:0
Bit depth : 8 bits
Scan type : MBAFF
Scan type, store method : Interleaved fields
Scan order : Top Field First
Bits/(Pixel*Frame) : 0.152
Stream size : 4.78 GiB (93%)
Audio
ID : 2312 (0x908)
Menu ID : 1013 (0x3F5)
Format : MPEG Audio
Format version : Version 1
Format profile : Layer 2
Mode : Joint stereo
Mode extension : Intensity Stereo + MS Stereo
Codec ID : 3
Duration : 1h 27mn
Bit rate mode : Constant
Bit rate : 192 Kbps
Channel(s) : 2 channels
Sampling rate : 48.0 KHz
Compression mode : Lossy
Stream size : 120 MiB (2%)
Language : Russian

Скриншоты

-Раздаю до первых 5-ти скачавших, на раздачи не возвращаюсь...-
Other forum [Profile] [PM]
Similar theme
Forum Topic Author Torrent Replies Last Post
./templates/default/images/folder_dl.gif Фантастика, фэнтези, ужасы, мистика Ольга Хусаинова | Академия Зла. Испытание ведьмой (2016) [FB2] moralis
1 | 0

0 | 2069

6

2016-01-20 17:07
moralis Latest
Display posts from previous:    
Reply to topic

The time now is: Today 03:22

All times are GMT + 3 Hours



You cannot post new topics in this forum
You cannot reply to topics in this forum
You cannot edit your posts in this forum
You cannot delete your posts in this forum
You cannot vote in polls in this forum
You cannot attach files in this forum
You cannot download files in this forum