Today is a free download without charge Download

Андрей Журавлев. | Мастер-класс. Цветокоррекция по числам. (2013) WEBRip [H.264]

Reply to topic
 
Author
Message

moralis ®

Gender:

Longevity: 4 years 1 month

Posts: 1605

Торрент-статистика

Post 03-Apr-2016 14:30

[Quote]

Мастер-класс. Цветокоррекция по числам. - Автор (режиссер): Андрей Журавлев.
Жанр: Обучающее видео
Описание:
Как формируется цвет из яркостей красного, зеленого и синего источников света. Как быстрее оценить имеющийся в изображении оттенок. На какие нюансы нужно обратить внимание. Как цвет зависит от профиля рабочего пространства. В чем плюсы и минусы оценки цвета по значениям RGB, CMYK и Lab. Об этом и расскажет известный специалист по цветокоррекции и допечатной подготовке, преподаватель Profileschool, Андрей Журавлев.
Продолжительность: 02:17:09
Качество видео: WEBRip
Видео: AVC/H.264, 1812х1080, ~1671 Кбит/сек
Аудио: AAC, 2 ch, 126 Кбит/сек, CBR

Mediainfo:

Код:
Полное имя                               : D:\Adobe\Фотошоп\Видео-Ютуб\Журавлев Алексей\Мастер-класс. Цветокоррекция по числам. Андрей Журавлев.mp4
Формат                                   : MPEG-4
Профиль формата                          : Base Media
Идентификатор кодека                     : isom (isom/iso2/avc1/mp41)
Размер файла                             : 1,73 Гбайт
Продолжительность                        : 2 ч. 17 м.
Общий поток                              : 1804 Кбит/сек
Программа кодирования                    : Lavf55.22.100
Идентификатор                            : 1
Формат                                   : AVC
Формат/Информация                        : Advanced Video Codec
Профиль формата                          : High@L4
Параметр CABAC формата                   : Да
Параметр ReFrames формата                : 3 кадра
Идентификатор кодека                     : avc1
Идентификатор кодека/Информация          : Advanced Video Coding
Продолжительность                        : 2 ч. 17 м.
Битрейт                                  : 1671 Кбит/сек
Ширина                                   : 1812 пикселей
Высота                                   : 1080 пикселей
Соотношение сторон                       : 5:3
Режим частоты кадров                     : Постоянный
Частота кадров                           : 30,000 кадров/сек
Цветовое пространство                    : YUV
Субдискретизация насыщенности            : 4:2:0
Битовая глубина                          : 8 бит
Тип развёртки                            : Прогрессивная
Бит/(Пиксели*Кадры)                      : 0.028
Размер потока                            : 1,60 Гбайт (93%)
Идентификатор                            : 2
Формат                                   : AAC
Формат/Информация                        : Advanced Audio Codec
Профиль формата                          : LC
Идентификатор кодека                     : 40
Продолжительность                        : 2 ч. 17 м.
Вид битрейта                             : Постоянный
Битрейт                                  : 126 Кбит/сек
Каналы                                   : 2 канала
Расположение каналов                     : Front: L R
Частота                                  : 44,1 КГц
Частота кадров                           : 43,066 кадра/сек (1024 spf)
Метод сжатия                             : С потерями
Размер потока                            : 123 Мбайт (7%)
Default                                  : Да
Alternate group                          : 1
Скриншоты:
       
Other forum [Profile] [PM]
Similar theme
Forum Topic Author Torrent Replies Last Post
./templates/default/images/folder_dl.gif Психология, Тренинг, Саморазвитие Андрей Парабеллум, Николай Мрочковский | Быстрые результаты. 10-дневная программа повышения личной эффективности (2012) [FB2, PDF, DOCX] moralis
1 | 0

0 | 388

1

2016-02-04 13:13
moralis Latest
./templates/default/images/folder_dl.gif Обучающее видео Андрей Зейгарник | Композиция и психология восприятия (2016) PCRec Omen
1 | 0

0 | 2144

32

2016-03-09 21:43
Omen Latest
./templates/default/images/folder_dl.gif Медицина и Здоровье Андрей Пенделя (сост.) | Большой справочник симптомов (2014) [FB2] moralis
1 | 0

0 | 1120

10

2016-03-13 13:55
moralis Latest
./templates/default/images/folder_dl.gif Фантастика, фэнтези, ужасы, мистика Васильев Андрей - Архипелаг. Шестеро в пиратских широтах [Литвинов Иван, 2016 г., 64 kbps, MP3] Omen
0 | 1

0 | 281

3

2016-05-31 15:33
Omen Latest
./templates/default/images/folder_dl.gif Техническая и научно-популярная литература Андрей Финкель | Правила дорожного движения в рисунках (2018) [PDF] }{@R0N
1 | 0

0 | 764

11

2018-07-23 11:56
}{@R0N Latest
./templates/default/images/folder_dl.gif Приключения, детектив, боевик, триллер Андрей Кардашов | Крушение: Выжить в Тайге (2018) [MP3] }{@R0N
1 | 0

0 | 806

13

2018-08-09 16:00
}{@R0N Latest
./templates/default/images/folder_dl.gif Новинки (HD|DVD|BD|WEB|TV|SAT|PDTV|-Rip) Балканский рубеж (Андрей Волгин) [2019 г., боевик, драма, WEB-DLRip ] [iTunes] kilmister777
1 | 0

0 | 1279

0

2019-05-02 12:19
kilmister777 Latest
Display posts from previous:    
Reply to topic

The time now is: Today 07:04

All times are GMT + 3 Hours



You cannot post new topics in this forum
You cannot reply to topics in this forum
You cannot edit your posts in this forum
You cannot delete your posts in this forum
You cannot vote in polls in this forum
You cannot attach files in this forum
You cannot download files in this forum