Сегодня идет свободное скачивание без начисления Download

Максим Солдаткин | Дизайнер. Курс по веб-дизайну и интерфейсам (2015) PCRec

Ответить на тему
 
Автор
Сообщение

Varius ®

Пол:

Стаж: 8 лет 5 месяцев

Сообщений: 2681

Откуда: Hell

Торрент-статистика

Пост 05-Апр-2015 16:58

[Цитировать]

Максим Солдаткин | Дизайнер. Курс по веб-дизайну и интерфейсам (2015) PCRec- Автор (режиссер): Максим Солдаткин
Жанр: Web дизайн
Продолжительность: 30:00:00
Качество видео: PCRec
Видеокодек: AVC
Битрейт видео: ~176 kbps
Размер кадра: 1280x720
Аудиокодек: AAC 2.0
Битрейт аудио: 192 kbps (CBR), 2 Ch, 44100 Hz
Описание:
За 4 недели практики мы рассмотрим профессию дизайнера со всех сторон. В курсе собраны все знания, необходимые современному дизайнеру. Курс охватывает все вопросы, с которыми сталкивается современный дизайнер на пути от новичка до арт-директора.

Дополнительная информация:

Содержание:
День проектировщика.
- Задача и цель
- Типы сайтов
- Приложения
- Увелечение коверсии
- Интерфейсы и юзабилити
- ТРИЗ
- Персонажи и сценарии
- Правила анимации
- Киты
- Вайфреймы
- Инструменты
- Микро и макро уровни
- Визуальные слои
- Акценты
День дизайнера.
- Типографика
- Классификация шрифтов
- Шрифт и восприятие
- Дыры и коридоры
- Висячие предлоги
- Пробелы и интервалы
- Графика
- Стоки: картинки, иконки, элементы
- Пространство
- Колонки и сетка
- Контраст
- Выноски
- Диаграммы
- Рамки и линейки
- Сетки и струны
День дизайн-менеджера.
- Портфолио
- Выбрать лучшие работы
- Описать свой труд
- Красивая подача
- Площадки для размещения
- Работа с клиентами
- Как общаться
- Как отфильтровывать
- С кем лучше работать
- Скрипты
- Как попасть в агенство
- Лайфаки
- Инструменты
- Планирование
- Сроки
День арт-директора.
- Эмоции
- Мудборд
- Скетч
- Концепция
- Визуальный язык
- Метафоры
- Культурные аллюзии
- Кей вижуал
- Рамки (фирменный стиль)
- Тренды
- Кругозор
- Креативное мышление
- Команда

MediaInfo:

Общее
Формат : MPEG-4
Профиль формата : Base Media / Version 2
Идентификатор кодека : mp42
Режим общего битрейта : Переменный
Общий поток : 371 Кбит/сек
Видео
Идентификатор : 1
Формат : AVC
Формат/Информация : Advanced Video Codec
Профиль формата : [url=mailto:High@L3.1]High@L3.1[/url]
Параметр CABAC формата : Да
Параметр ReFrames формата : 1 кадр
Идентификатор кодека : avc1
Идентификатор кодека/Информация : Advanced Video Coding
Битрейт : 176 Кбит/сек
Максимальный битрейт : 4156 Кбит/сек
Ширина : 1280 пикселей
Высота : 720 пикселей
Соотношение сторон : 16:9
Режим частоты кадров : Постоянный
Частота кадров : 24,000 кадра/сек
Цветовое пространство : YUV
Субдискретизация насыщенности : 4:2:0
Битовая глубина : 8 бит
Тип развёртки : Прогрессивная
Бит/(Пиксели*Кадры) : 0.008
Размер потока : 508 Мбайт (48%)
Аудио
Идентификатор : 2
Формат : AAC
Формат/Информация : Advanced Audio Codec
Профиль формата : LC
Идентификатор кодека : 40
Вид битрейта : Переменный
Битрейт : 192 Кбит/сек
Максимальный битрейт : 201 Кбит/сек
Каналы : 2 канала
Расположение каналов : Front: L R
Частота : 44,1 КГц
Метод сжатия : С потерями
Размер потока : 553 Мбайт (52%)
Скриншоты:
       
Время раздачи: Круглосуточно

_________________

Создавая "Новую папку", не считайте себя Создателем - это право Вам дано Админом


Вне форума [Профиль] [ЛС]

Нади

Стаж: 2 года 5 месяцев

Сообщений: 1

Торрент-статистика

Пост 25-Мар-2016 17:52 (спустя 11 месяцев 20 дней)

[Цитировать]

раздайте, пожалуйста!
Вне форума [Профиль] [ЛС]

Геннадич

Пол:

Стаж: 5 лет 2 месяца

Сообщений: 1013

Торрент-статистика

Пост 26-Мар-2016 08:14 (спустя 14 часов)

[Цитировать]

Нади, попробуйте для начала встать на раздачу и у Вас всё получится
(Сколько ни кричи "Халва! Халва!", во рту слаще не станет. )

_________________
Вне форума [Профиль] [ЛС]
Похожие темы
Форум Тема Автор Торрент Отв. Посл. сообщение
./templates/default/images/folder_dl.gif Фильмы до 2000 года Максим Перепелица (1955) [H.264] DVDRip UndegraundMen
1 | 0

0 | 1107

12

2013-05-25 00:21
UndegraundMen Последнее
./templates/default/images/folder_dl.gif Обучающее видео Алекс Мэй | Сексуальные позиции. Для максимального наслаждения (2013) [CamRip] Omen
1 | 0

0 | 1674

201

2015-05-07 00:08
Omen Последнее
./templates/default/images/folder_dl.gif Обучающее видео [Максим Басманов] Ретушь фотографий [2013, RUS] Omen
1 | 0

0 | 1090

20

2015-05-08 00:00
Omen Последнее
./templates/default/images/folder_dl.gif Медицина и Здоровье Артем Максимов | 2 в 1. Массаж. Полное руководство + Целительные точки тела. Полный справочник (2015) [FB2] Omen
1 | 0

0 | 1183

14

2015-05-08 09:57
Omen Последнее
./templates/default/images/folder_dl.gif Обучающее видео [Максим Басманов] ЛАБОРАТОРИЯ PHOTOSHOP [2013, RUS, ММ] Omen
0 | 1

0 | 1178

0

2015-05-08 18:00
Omen Последнее
./templates/default/images/folder_dl.gif Обучающее видео [Максим Басманов] Мастерская ретуши [2013, RUS, ММ] Omen
1 | 0

0 | 1316

15

2015-05-09 03:00
Omen Последнее
./templates/default/images/folder_dl.gif Обучающее видео [Максим Басманов] Основы Lightroom 4.2 [2011, RUS] Omen
1 | 0

0 | 897

19

2015-05-10 00:00
Omen Последнее
./templates/default/images/folder_dl.gif Обучающее видео [Максим Басманов] Секреты Photoshop [2012, RUS, ММ] Omen
1 | 0

0 | 742

15

2015-05-14 12:00
Omen Последнее
./templates/default/images/folder_dl.gif Бизнес, Право, Экономика, Финансы Анна Моисеева, Сергей Тихоненко | Как купить квартиру выгодно. Потратьте минимум — получите максимум (2015) [EPUB] moralis
1 | 0

0 | 994

10

2016-04-10 22:22
moralis Последнее
./templates/default/images/folder_dl.gif Обучающее видео Максим Басманов | Мастерская Photoshop. Ретушь фотографий в Photoshop (2016) PCRec [H.264.720p] moralis
1 | 0

0 | 2096

31

2016-12-12 18:20
moralis Последнее
Показать сообщения:    
Ответить на тему

Текущее время: Сегодня 16:50

Часовой пояс: GMT + 3



Вы не можете начинать темы
Вы не можете отвечать на сообщения
Вы не можете редактировать свои сообщения
Вы не можете удалять свои сообщения
Вы не можете голосовать в опросах
Вы не можете прикреплять файлы к сообщениям
Вы не можете скачивать файлы