Today is a free download without charge Download

Ниндзя: Шаг в неизвестность / Ninja Immovable Heart (Роб Баард, Янош Балаж / Rob Baard, John Balazs) [2014, фантастика, боевик, триллер, HDRip) [Официальный звук]

Reply to topic
DL-List and Torrent activity
Size:  1.46 GB   |    Registered:  3 years 8 months   |    Completed:  62 times

Seeder not seen: 3 months

 
 
 
 
 
Author
Message

Region_13 ®

Gender:

Longevity: 5 years 10 months

Posts: 782

Location: Мальдивы

Торрент-статистика

Post 24-Mar-2016 19:19

[Quote]

Ниндзя: Шаг в неизвестность / Ninja Immovable Heart Информация о фильме
Название: Ниндзя: Шаг в неизвестность
Оригинальное название: Ninja Immovable Heart
Год выхода: 2014
Жанр: фантастика, боевик, триллер
Режиссер: Роб Баард, Янош Балаж
В ролях: Роб Баард, Роджер Нив, Дэнни Гловер, Янош Балаж, Блэйз Бродвэй, Кассандра Гава, Aliante Youngdino, Джейкоб Файф, Вивиан Лэнгхэм, Дженнифер Роуз
Выпущено: Австралия
Продолжительность: 01:43:12
Озвучивание: Профессиональное (многоголосое) [Официальный звук]
О фильме: Фантастический триллер, где в недалеком будущем люди остались бесправными существами, решения за которых принимают бездушные машины.
Качество: HDRip
Формат: AVI
Видео: (XviD)1823 kb/s, 720x400
Аудио: AC3, 192 kb/s (2 ch)


MEDIAINFO

Код:
General
Complete name                    : E:\Nidzya.Sag.v.neizvestnostj.2014.P.HDRip.avi
Format                           : AVI
Format/Info                      : Audio Video Interleave
File size                        : 1.46 GiB
Duration                         : 1h 43mn
Overall bit rate                 : 2 024 Kbps
Writing application              : VirtualDubMod 1.5.10.2 (build 2540/release)
Writing library                  : VirtualDubMod build 2540/release
Video
ID                               : 0
Format                           : MPEG-4 Visual
Format profile                   : Advanced Simple@L5
Format settings, BVOP            : 2
Format settings, QPel            : No
Format settings, GMC             : No warppoints
Format settings, Matrix          : Default (MPEG)
Codec ID                         : XVID
Codec ID/Hint                    : XviD
Duration                         : 1h 43mn
Bit rate                         : 1 823 Kbps
Width                            : 720 pixels
Height                           : 400 pixels
Display aspect ratio             : 16:9
Frame rate                       : 23.976 fps
Color space                      : YUV
Chroma subsampling               : 4:2:0
Bit depth                        : 8 bits
Scan type                        : Progressive
Compression mode                 : Lossy
Bits/(Pixel*Frame)               : 0.264
Stream size                      : 1.31 GiB (90%)
Writing library                  : XviD 1.2.1 (UTC 2008-12-04)
Audio
ID                               : 1
Format                           : AC-3
Format/Info                      : Audio Coding 3
Mode extension                   : CM (complete main)
Codec ID                         : 2000
Duration                         : 1h 43mn
Bit rate mode                    : Constant
Bit rate                         : 192 Kbps
Channel(s)                       : 2 channels
Channel positions                : Front: L R
Sampling rate                    : 48.0 KHz
Bit depth                        : 16 bits
Compression mode                 : Lossy
Stream size                      : 142 MiB (9%)
Alignment                        : Split accross interleaves
Interleave, duration             : 42 ms (1.00 video frame)
Interleave, preload duration     : 500 ms
СКРИНШОТЫ        

Скриншоты Дополнительные

     
[darkos.club].t280916.torrent 
Torrent: Registered   [ 2016-03-24 19:19 ]

Download

15 KB

Воспроизвести онлайн

Status: checked
Completed: 62 times
Size: 1.46 GB, InfoHash (Google it!)
Score:  4.8 (vote: 4)
Default: 9  Thank you   (list)
 

_________________


Last edited by Region_13 on 2016-03-24 20:25; edited 2 times in total
Other forum [Profile] [PM]

Region_13 ®

Gender:

Longevity: 5 years 10 months

Posts: 782

Location: Мальдивы

Торрент-статистика

Post 24-Mar-2016 20:26 (after 1 hour 7 minutes)

[Quote]

Геннадич, е мае)))))))))))Век живи,Век Учись))))))

_________________
Other forum [Profile] [PM]
Display posts from previous:    
Reply to topic

The time now is: Today 20:31

All times are GMT + 3 Hours



You cannot post new topics in this forum
You cannot reply to topics in this forum
You cannot edit your posts in this forum
You cannot delete your posts in this forum
You cannot vote in polls in this forum
You cannot attach files in this forum
You can download files in this forum