Сегодня идет свободное скачивание без начисления Download

Александр Медведев | Фотография по полкам. Свет. Часть 2 (2016) PCRec [H.264/1080p]

Ответить на тему
 
Автор
Сообщение

Omen ®

Стаж: 5 лет 11 месяцев

Сообщений: 184329

Торрент-статистика

Пост 09-Мар-2016 15:01

[Цитировать]

Фотография по полкам. Свет. Часть 2 - Автор (режиссер): Александр Медведев
Жанр: Съемка фото
Описание:
В этой части вы научитесь грамотно работать со светом. И, прибегая к советам Александра Медведева, сможете получить отличный результат в любых условиях освещенности.

Вы узнаете:

как снимать красивые портреты;
о том, что у света есть: жесткость и направление, научитесь управлять ими на съемке;
как снимать с естественным светом (далеко не просто в лоб);
как работать с искусственным светом и делать это круто;
как снимает Александр Медведев на практических интересных примерах.
Продолжительность: 03:24:28
Качество видео: PCRec
Видео: AVC/H.264, 1920x1080, ~3 564 kb/s
Аудио: AAC, 2 ch, 256 kb/s

Mediainfo:

eneral
Complete name : G:\Александр Медведев - Фотография по полкам. Свет. Часть 2 (2016)\01 - ЭКСПОНОМЕТРИЯ\01 - Вступление.MP4
Format : MPEG-4
Format profile : Base Media / Version 2
Codec ID : mp42 (mp42/mp41/isom/avc1)
File size : 312 MiB
Duration : 11 min
Overall bit rate mode : Variable
Overall bit rate : 3 824 kb/s
Encoded date : UTC 2016-08-01 10:18:47
Tagged date : UTC 2016-08-01 10:18:47
Video
ID : 1
Format : AVC
Format/Info : Advanced Video Codec
Format profile : High@L4
Format settings, CABAC : Yes
Format settings, ReFrames : 4 frames
Codec ID : avc1
Codec ID/Info : Advanced Video Coding
Duration : 11 min
Bit rate : 3 564 kb/s
Width : 1 920 pixels
Height : 1 080 pixels
Display aspect ratio : 16:9
Frame rate mode : Constant
Frame rate : 25.000 FPS
Color space : YUV
Chroma subsampling : 4:2:0
Bit depth : 8 bits
Scan type : Progressive
Bits/(Pixel*Frame) : 0.069
Stream size : 291 MiB (93%)
Writing library : x264 core 148 r10 3f5ed56
Encoding settings : cabac=1 / ref=4 / deblock=1:0:0 / analyse=0x3:0x113 / me=umh / subme=8 / psy=1 / psy_rd=1.00:0.00 / mixed_ref=1 / me_range=16 / chroma_me=1 / trellis=1 / 8x8dct=1 / cqm=0 / deadzone=21,11 / fast_pskip=1 / chroma_qp_offset=-2 / threads=34 / lookahead_threads=5 / sliced_threads=0 / nr=0 / decimate=1 / interlaced=0 / bluray_compat=0 / stitchable=1 / constrained_intra=0 / bframes=3 / b_pyramid=2 / b_adapt=2 / b_bias=0 / direct=3 / weightb=1 / open_gop=0 / weightp=2 / keyint=infinite / keyint_min=25 / scenecut=40 / intra_refresh=0 / rc_lookahead=50 / rc=crf / mbtree=1 / crf=20.0 / qcomp=0.60 / qpmin=5 / qpmax=69 / qpstep=4 / vbv_maxrate=4950 / vbv_bufsize=13500 / crf_max=0.0 / nal_hrd=none / filler=0 / ip_ratio=1.40 / aq=1:1.00
Color range : Limited
Color primaries : BT.709
Transfer characteristics : BT.709
Matrix coefficients : BT.709
Audio
ID : 2
Format : AAC
Format/Info : Advanced Audio Codec
Format profile : LC
Codec ID : 40
Duration : 11 min
Bit rate mode : Variable
Bit rate : 256 kb/s
Channel(s) : 2 channels
Channel positions : Front: L R
Sampling rate : 48.0 kHz
Frame rate : 46.875 FPS (1024 spf)
Compression mode : Lossy
Stream size : 20.9 MiB (7%)
Скриншоты:
       
Вне форума [Профиль] [ЛС]
Похожие темы
Форум Тема Автор Торрент Отв. Посл. сообщение
./templates/default/images/folder_dl.gif Обучающее видео Александр Тулупов | Отрисовка света на фото в Фотошопе в стиле Silent Hill [2013] [PCRec] UndegraundMen
1 | 0

0 | 3203

37

2013-04-09 00:00
UndegraundMen Последнее
./templates/default/images/folder_dl.gif Обучающее видео Александр Заморин | Как научиться фотографировать на зеркальную фотокамеру [2013] PCRec UndegraundMen
1 | 0

0 | 3857

58

2013-08-23 11:00
UndegraundMen Последнее
./templates/default/images/folder_dl.gif Обучающее видео Алекс Мэй | Академия секса (2012) [SATRip] UndegraundMen
2 | 0

0 | 11131

693

2013-09-30 23:05
UndegraundMen Последнее
./templates/default/images/folder_dl.gif Обучающее видео Александр Заморин | Lightroom – практическая магия (2013) [PCRec] UndegraundMen
1 | 0

0 | 4205

89

2013-12-03 22:26
UndegraundMen Последнее
./templates/default/images/folder_dl.gif Обучающее видео [profileschool] Алексей Довгуля | Студийная съемка (2014) PCRec Omen
1 | 0

0 | 3268

108

2014-09-28 20:05
Omen Последнее
./templates/default/images/folder_dl.gif Обучающее видео [Profileschool] Алексей Фурсов | Введение в предметную съемку (2014) PCRec Omen
1 | 0

0 | 2374

81

2014-11-06 19:19
Omen Последнее
./templates/default/images/folder_dl.gif Обучающее видео [Profileschool] Алексей Шадрин | Управление визуальным объемом и резкостью изображений (2014) PCRec Omen
1 | 0

0 | 2671

129

2014-11-14 15:38
Omen Последнее
./templates/default/images/folder_dl.gif Обучающее видео [Profileschool] Алексей Шадрин | Калибровка принтера: от А до Я (2015) PCRec Omen
1 | 0

0 | 1709

78

2015-03-25 21:19
Omen Последнее
./templates/default/images/folder_dl.gif Обучающее видео Алекс Мэй | Сексуальные позиции. Для максимального наслаждения (2013) [CamRip] Omen
1 | 0

0 | 1796

201

2015-05-07 00:08
Omen Последнее
./templates/default/images/folder_dl.gif Обучающее видео Алекс Мэй - Куннилингус. Секреты мастерства [2012] CamRip Omen
1 | 0

0 | 1801

175

2015-05-07 00:18
Omen Последнее
Показать сообщения:    
Ответить на тему

Текущее время: Сегодня 03:39

Часовой пояс: GMT + 3



Вы не можете начинать темы
Вы не можете отвечать на сообщения
Вы не можете редактировать свои сообщения
Вы не можете удалять свои сообщения
Вы не можете голосовать в опросах
Вы не можете прикреплять файлы к сообщениям
Вы не можете скачивать файлы