Сегодня идет свободное скачивание без начисления Download

Дмитрий Скобелев / Profileschool | Основы аналоговой фотографии (2017) PCRec

Ответить на тему
 
Автор
Сообщение

Omen ®

Стаж: 6 лет 1 месяц

Сообщений: 184308

Торрент-статистика

Пост 09-Мар-2016 09:28

[Цитировать]

Дмитрий Скобелев / Profileschool | Основы аналоговой фотографии - Автор (режиссер): Дмитрий Скобелев / Profileschool
Жанр: Фото
Описание:
Ваши пленочные кадры смотрятся хуже цифровых? Вы делаете много лишних дублей в надежде угадать экспозицию? В лаборатории вам портят черно-белые пленки плохой проявкой? Вам кажется, что съемка на пленку — дорогое удовольствие? Узнайте, как правильно определять экспозицию, что нужно знать о ручной проявке фотопленок и какое вспомогательное оборудование сделает процесс быстрее и легче, чтобы получать качественные снимки с большим сроком сохранности! Вас подготовит фотограф с опытом использования большинства видов и типов фотокамер и вспомогательного оборудования формата от 35 мм до 8×10 дюймов. Вместо демонстрации чужих слайдов, Дмитрий покажет собственные работы и расскажет о нюансах их съемки.
Основным достоинством этого занятия является многолетний опыт автора — опыт использования различных фотоматериалов, снятых с помощью самой разнообразной техники. Дмитрий продемонстрирует основные дефекты изображений и расскажет о причинах их возникновения. Вы разберете такие параметры, как тональность, контраст, зернистость разных пленок, посмотрите, как влияют на качество изображения экспозиция и освещение. Вам представится возможность пообщаться с одним из самых опытных педагогов по пленочной фотографии в стране (стаж преподавания 11 лет) и получить от него ответы на свои вопросы.
Продолжительность: 06:40:31
Качество видео: PCRec
Видео: AVC/H.264, 1920x1080, ~1400Kbps
Аудио: AAC, 2 ch, 160 VBR

Mediainfo:

Формат                                   : MPEG-4
Профиль формата : Base Media / Version 2
Идентификатор кодека : mp42 (isom/iso2/avc1/mp41)
Размер файла : 654 Мбайт
Продолжительность : 59 м. 33 с.
Режим общего битрейта : Переменный
Общий поток : 1536 Кбит/сек
Дата кодирования : UTC 2017-04-06 06:24:10
Дата пометки : UTC 2017-04-06 10:58:47
Видео
Идентификатор : 1
Формат : AVC
Формат/Информация : Advanced Video Codec
Профиль формата : Main@L5
Параметр CABAC формата : Да
Параметр ReFrames формата : 5 кадров
Идентификатор кодека : avc1
Идентификатор кодека/Информация : Advanced Video Coding
Продолжительность : 59 м. 33 с.
Битрейт : 1393 Кбит/сек
Ширина : 1920 пикселей
Высота : 1080 пикселей
Соотношение сторон : 16:9
Режим частоты кадров : Постоянный
Частота кадров : 30,000 кадров/сек
Цветовое пространство : YUV
Субдискретизация насыщенности : 4:2:0
Битовая глубина : 8 бит
Тип развёртки : Прогрессивная
Бит/(Пиксели*Кадры) : 0.022
Размер потока : 593 Мбайт (91%)
Дата кодирования : UTC 2017-04-06 06:24:10
Дата пометки : UTC 2017-04-06 10:58:47
Основные цвета : BT.709
Характеристики трансфера : BT.709
Коэффициенты матрицы : BT.709
Аудио
Идентификатор : 2
Формат : AAC
Формат/Информация : Advanced Audio Codec
Профиль формата : LC
Идентификатор кодека : 40
Продолжительность : 59 м. 33 с.
Вид битрейта : Переменный
Битрейт : 139 Кбит/сек
Максимальный битрейт : 158 Кбит/сек
Каналы : 2 канала
Расположение каналов : Front: L R
Частота : 44,1 КГц
Частота кадров : 43,066 кадра/сек (1024 spf)
Метод сжатия : С потерями
Размер потока : 59,1 Мбайт (9%)
Дата кодирования : UTC 2017-04-06 06:24:10
Дата пометки : UTC 2017-04-06 06:25:44
Скриншоты:        
Вне форума [Профиль] [ЛС]
Похожие темы
Форум Тема Автор Торрент Отв. Посл. сообщение
./templates/default/images/folder_dl.gif Обучающее видео Дмитрий Гусев | Курс по обработке фото (2014) WEBRip [H.264/720p-LQ] Omen
1 | 0

0 | 2678

70

2014-10-29 13:17
Omen Последнее
./templates/default/images/folder_dl.gif Обучающее видео [Profileschool] Дмитрий Шатров | Жанровая съемка в путешествии (2015) PCRec Omen
1 | 0

0 | 1384

35

2015-04-06 16:23
Omen Последнее
./templates/default/images/folder_dl.gif Компьютерная литература Дмитрий Котеров, Игорь Симдянов | PHP 7. В подлиннике (2016) [PDF] moralis
1 | 0

0 | 1287

5

2017-09-29 15:16
moralis Последнее
Показать сообщения:    
Ответить на тему

Текущее время: Сегодня 05:21

Часовой пояс: GMT + 3



Вы не можете начинать темы
Вы не можете отвечать на сообщения
Вы не можете редактировать свои сообщения
Вы не можете удалять свои сообщения
Вы не можете голосовать в опросах
Вы не можете прикреплять файлы к сообщениям
Вы не можете скачивать файлы