Today is a free download without charge Download

Просветлённая / Enlightened / Сезон: 1-2 / Серии: 1-18 из 18 (Мигель Артета, Джонатан Демме, Тодд Хейнс) [2011-2013, драма, комедия, HDRip] MVO (Amedia) + Original

Reply to topic
 
Author
Message

Omen ®

Longevity: 6 years 7 months

Posts: 181095

Торрент-статистика

Post 08-Feb-2016 00:00

[Quote]

Просветлённая / Enlightened
Год выпуска: 2011-2013
Страна: США
Выпущено: HBO
Жанр: драма, комедия
Продолжительность: ~ 00:30:00 / Общая продолжительность: 08:23:08
Перевод: Многоголосый закадровый (Amedia) + Оригинал (Английский)
Режиссёр: Мигель Артета, Джонатан Демме, Тодд Хейнс
В ролях: Лора Дерн, Дайан Лэдд, Сара Бёрнс, Люк Уилсон, Тимм Шарп, Майк Уайт, Робин Райт
Описание: Эми Джеллико, амбициозный менеджер в глобальном конгломерате, всегда была своим собственным врагом номер один. Ее саморазрушительные решения, как на работе, так и дома, стали причиной её нервного срыва. После долгой реабилитации на Гавайях, Эми возвращается к своей разбитой жизни с твёрдым намерением вести просвещённое существование. Но её благородные намерения вносят ещё больше хаоса и добавляют драмы. Оказывается, никому не нравится новая, просвещённая Эми.

Релиз:
Качество (Сезон 1): HDRip
Формат: AVI
Видео: 720x400 (16:9), 23.976 fps, XviD build 65 ~2 000 kbps avg, 0.29 bit/pixel
Аудио: 48 kHz, AC3 Dolby Digital, 2.0 ch, ~192.00 kbps avg - Rus
Аудио 2: 48 kHz, AC3 Dolby Digital, 2.0 ch, ~192.00 kbps avg - Eng
Субтитры: отсутствуют
Качество (Сезон 2): WEB-DLRip
Формат: AVI
Видео: 720x400 (1.80:0), 23.976 fps, XviD build 65 ~2 000 kbps avg, 0.29 bit/pixel
Аудио: 48 kHz, AC3 Dolby Digital, 2.0 ch, ~192.00 kbps avg - Rus
Аудио 2: 48 kHz, AC3 Dolby Digital, 2.0 ch, ~192.00 kbps avg - Eng
Субтитры: отсутствуют

Список серий

Сезон 01 Эпизод 01 - "Pilot"
Сезон 01 Эпизод 02 - "Now or Never"
Сезон 01 Эпизод 03 - "Someone Else's Life"
Сезон 01 Эпизод 04 - "The Weekend"
Сезон 01 Эпизод 05 - "Not Good Enough Mothers"
Сезон 01 Эпизод 06 - "Sandy"
Сезон 01 Эпизод 07 - "Lonely Ghosts"
Сезон 01 Эпизод 08 - "Comrades Unite!"
Сезон 01 Эпизод 09 - "Consider Helen"
Сезон 01 Эпизод 10 - "Burn It Down"
Сезон 02 Эпизод 01 - "The Key"
Сезон 02 Эпизод 02 - "Revenge Play"
Сезон 02 Эпизод 03 - "Higher Power"
Сезон 02 Эпизод 04 - "Follow Me"
Сезон 02 Эпизод 05 - "The Ghost Is Seen"
Сезон 02 Эпизод 06 - "All I Ever Wanted"
Сезон 02 Эпизод 07 - "No Doubt"
Сезон 02 Эпизод 08 - "Agent of Change"

MediaInfo

Полное имя : C:\Enlightened (Amedia)\Season 01\Enlightened.s01e01.HDRip.Amedia.avi
Формат : AVI
Формат/Информация : Audio Video Interleave
Размер файла : 524 Мбайт
Продолжительность : 30 м.
Общий поток : 2398 Кбит/сек
Программа кодирования : VirtualDubMod 1.5.10.2 (build 2540/release)
Библиотека кодирования : VirtualDubMod build 2540/release
Видео
Идентификатор : 0
Формат : MPEG-4 Visual
Профиль формата : Advanced Simple@L5
Параметр BVOP формата : 1
Параметр QPel формата : Нет
Параметр GMC формата : Без точки перехода
Параметр матрицы формата : Default (MPEG)
Идентификатор кодека : XVID
Идентификатор кодека/Подсказка : XviD
Продолжительность : 30 м.
Битрейт : 2000 Кбит/сек
Ширина : 720 пикс.
Высота : 400 пикс.
Соотношение сторон : 16:9
Частота кадров : 23,976 кадр/сек
Цветовое пространство : YUV
Подвыборка цветности : 4:2:0
Битовая глубина : 8 бит
Тип развёртки : Прогрессивная
Метод сжатия : С потерями
Бит/(Пиксели*Кадры) : 0.290
Размер потока : 437 Мбайт (83%)
Библиотека кодирования : XviD 65
Аудио #1
Идентификатор : 1
Формат : AC-3
Формат/Информация : Audio Coding 3
Расширение режима : CM (complete main)
Идентификатор кодека : 2000
Продолжительность : 30 м.
Вид битрейта : Постоянный
Битрейт : 192 Кбит/сек
Каналы : 2 канала
Расположение каналов : Front: L R
Частота : 48,0 КГц
Битовая глубина : 16 бит
Метод сжатия : С потерями
Размер потока : 42,0 Мбайт (8%)
Выравнивание : Разделение по промежуткам
Продолжительность промежутка : 42 мс. (1,00 видеокадр)
Время предзагрузки промежутка : 500 ms
Аудио #2
Идентификатор : 2
Формат : AC-3
Формат/Информация : Audio Coding 3
Расширение режима : CM (complete main)
Идентификатор кодека : 2000
Продолжительность : 30 м.
Вид битрейта : Постоянный
Битрейт : 192 Кбит/сек
Каналы : 2 канала
Расположение каналов : Front: L R
Частота : 48,0 КГц
Битовая глубина : 16 бит
Метод сжатия : С потерями
Размер потока : 42,0 Мбайт (8%)
Выравнивание : Разделение по промежуткам
Продолжительность промежутка : 42 мс. (1,00 видеокадр)
Время предзагрузки промежутка : 500 ms

Скриншоты



Other forum [Profile] [PM]
Display posts from previous:    
Reply to topic

The time now is: Today 20:11

All times are GMT + 3 Hours



You cannot post new topics in this forum
You cannot reply to topics in this forum
You cannot edit your posts in this forum
You cannot delete your posts in this forum
You cannot vote in polls in this forum
You cannot attach files in this forum
You cannot download files in this forum