Today is a free download without charge Download

Концерт Елены Ваенги в Кремле [2016, творческий вечер, концерт, HDTVRip]

Reply to topic
 
Author
Message

O.S.A. ®

Gender:

Longevity: 6 years 1 month

Posts: 3546

Location: СССР

Торрент-статистика

Post 07-Feb-2016 11:21

[Quote]

--Концерт Елены Ваенги в Кремле--
  • Год выпуска: 2016
  • Страна: Россия / «Первый канал»
  • Жанр: творческий вечер, концерт
  • Продолжительность: 01:26:14
  • Перевод: Не требуется-
  • Исполнитель: Елена Ваенга-
  • Ее песни знакомы каждому в нашей стране. В эту субботу Первый канал представляет вашему вниманию телевизионную версию сольного концерта Елены Ваенги, в котором прозвучат композиции: "Сердце напополам", "Курю", "Нева", "Шопен", "Остановка", "Мишина песня", "Аэропорт", "Невеста" и другие.-
  • Премьера в России: 6 февраля 2016 (Первый канал)--
  • --
  • Качество видео: HDTVRip
  • Формат видео: AVI
  • Видео кодек: XviD
  • Аудио кодек: AC3
  • Видео: 720x400 (1.80:1), 25.000 fps, XviD MPEG-4, ~2000 kbps avg, 0.278 bit/pixel
  • Аудио: 48.0 kHz, AC3 Dolby Digital, 2/0 (L,R) ch, ~192.00 kbps avg
  • Субтитры: нет
--

Media Info

General
Complete name : W:\O.S.A.\Торренты\Завершенные торренты\Koncert Eleny Vaengi.HDTVRip.GeneralFilm.avi
Format : AVI
Format/Info : Audio Video Interleave
File size : 1.33 GiB
Duration : 1h 26mn
Overall bit rate : 2 200 Kbps
Writing application : VirtualDubMod 1.5.10.3 (build 2550/release)
Writing library : VirtualDubMod build 2550/release
Video
ID : 0
Format : MPEG-4 Visual
Format profile : Advanced Simple@L5
Format settings, BVOP : 1
Format settings, QPel : No
Format settings, GMC : No warppoints
Format settings, Matrix : Custom
Codec ID : XVID
Codec ID/Hint : XviD
Duration : 1h 26mn
Bit rate : 1 998 Kbps
Width : 720 pixels
Height : 400 pixels
Display aspect ratio : 16:9
Frame rate : 25.000 fps
Color space : YUV
Chroma subsampling : 4:2:0
Bit depth : 8 bits
Scan type : Progressive
Compression mode : Lossy
Bits/(Pixel*Frame) : 0.278
Stream size : 1.20 GiB (91%)
Writing library : XviD 73
Audio
ID : 1
Format : AC-3
Format/Info : Audio Coding 3
Mode extension : CM (complete main)
Codec ID : 2000
Duration : 1h 26mn
Bit rate mode : Constant
Bit rate : 192 Kbps
Channel(s) : 2 channels
Channel positions : Front: L R
Sampling rate : 48.0 KHz
Bit depth : 16 bits
Compression mode : Lossy
Stream size : 118 MiB (9%)
Alignment : Split accross interleaves
Interleave, duration : 40 ms (1.00 video frame)
Interleave, preload duration : 500 ms
--        -- --

_________________

===============================
IGNOSCITO SAEPE ALTERI, NUNQUAM TIBI
Other forum [Profile] [PM]
Display posts from previous:    
Reply to topic

The time now is: Today 16:54

All times are GMT + 3 Hours



You cannot post new topics in this forum
You cannot reply to topics in this forum
You cannot edit your posts in this forum
You cannot delete your posts in this forum
You cannot vote in polls in this forum
You cannot attach files in this forum
You cannot download files in this forum