Today is a free download without charge Download

Взлом / Home Invasion (Дэвид Теннант) [2016 г., триллер, WEB-DLRip]

Reply to topic
 
Author
Message

Region_13 ®

Gender:

Longevity: 6 years

Posts: 782

Location: Мальдивы

Торрент-статистика

Post 02-Feb-2016 21:55

[Quote]

Взлом / Home Invasion Год выпуска: 2016
Страна: США / ARO Entertainment, Odyssey Media, TAJJ Media
Жанр: триллер
Продолжительность: 85 мин. / 01:25
Перевод: Профессиональный (многоголосый закадровый)
Режиссер: Дэвид Теннант
Продюссер: Джефф Сэкман, Кирк Шоу, Шон Эшмор
Сценарий: Питер Салливан
Премьера в мире: 1 февраля 2016


В ролях: Скотт Эдкинс, Наташа Хенстридж, Лиам Дикинсон, Кира Загорски, Майкл Роджерс, Кристиан Тессьер, Бренда Кричлоу, Лиэнн Лэпп, Джоанна Ньюмарк, Гари Чок
Описание: Ужас приходит к героям в месте, которое они считали самым безопасным. В своем загородном доме состоятельная дама со своим приемным сыном становятся жертвой нападения трех изощренных и беспощадных воров. Единственная их надежда на спасение — это оператор службы домашней сигнализации на другом конце телефона. Сможет ли он стать глазами пленников собственного дома и помочь им выбраться из кошмара наяву?
Качество:WEB-DLRip
Формат: AVI
Видео кодек: XviD
Аудио кодек: AC3
Видео: MPEG4, XviD, 720x400 (16:9), 23.976 fps, 1 979 Kbps (0.287 bit/pixel)
Аудио: AC-3, 48.0 KHz, 6 ch, 384 Kbps, CBR
           

MEDIAINFO

Общее
Полное имя : F:\кино\Взлом.2016.WEB-DLRip.avi
Формат : AVI
Формат/Информация : Audio Video Interleave
Размер файла : 1,47 Гбайт
Длительность : 1 ч. 28 м.
Общий поток : 2372 Кбит/сек
Программа кодирования : VirtualDubMod 1.5.10.3 | www.virtualdub-fr.org || (build 2550/release)
Библиотека кодирования : VirtualDubMod build 2550/release
Видео
Идентификатор : 0
Формат : MPEG-4 Visual
Профиль формата : Advanced Simple@L5
Параметр BVOP формата : 2
Параметр QPel формата : Нет
Параметр GMC формата : Без точки перехода
Параметр матрицы формата : Default (H.263)
Идентификатор кодека : XVID
Идентификатор кодека/Подсказка : XviD
Длительность : 1 ч. 28 м.
Битрейт : 1979 Кбит/сек
Ширина : 720 пикселей
Высота : 400 пикселей
Соотношение сторон : 16:9
Частота кадров : 23,976 (23976/1000) кадра/сек
Цветовое пространство : YUV
Субдискретизация насыщенности : 4:2:0
Битовая глубина : 8 бит
Тип развёртки : Прогрессивная
Метод сжатия : С потерями
Бит/(Пиксели*Кадры) : 0.287
Размер потока : 1,22 Гбайт (83%)
Библиотека кодирования : XviD 1.2.1 (UTC 2008-12-04)
Аудио
Идентификатор : 1
Формат : AC-3
Формат/Информация : Audio Coding 3
Расширение режима : CM (complete main)
Параметр Endianness формата : Big
Идентификатор кодека : 2000
Длительность : 1 ч. 28 м.
Вид битрейта : Постоянный
Битрейт : 384 Кбит/сек
Каналы : 6 каналов
Расположение каналов : Front: L C R, Side: L R, LFE
Частота : 48,0 КГц
Частота кадров : 31,250 кадров/сек (1536 spf)
Метод сжатия : С потерями
Размер потока : 243 Мбайт (16%)
Выравнивание : Разделение по промежуткам
Длительность промежутка : 42 мс. (1,00 видеокадр)
Время предзагрузки промежутка : 500 мс.

_________________
Other forum [Profile] [PM]
Similar theme
Forum Topic Author Torrent Replies Last Post
./templates/default/images/folder_dl.gif Обучающее видео PentestIT | Безопасность сетевой инфраструктуры. Расширенные методы взлома и защиты. (2014) PCRec Omen
1 | 0

0 | 780

14

2015-04-25 18:55
Omen Latest
./templates/default/images/folder_dl.gif Обучающее видео InfiniteSkills | Профессиональное руководство по взлому и проникновению в беспроводную сеть WiFi (2015) PCRec [H.264/1080p] moralis
1 | 0

0 | 956

21

2016-02-22 22:07
moralis Latest
./templates/default/images/folder_dl.gif Обучающее видео Udemy.com | IT Безопасность Для Начинающих 2.0 : Сертифицированный Курс По Взлому (2015) PCRec [H.264/720p] Omen
1 | 0

0 | 1492

47

2016-06-28 06:01
Omen Latest
Display posts from previous:    
Reply to topic

The time now is: Today 19:05

All times are GMT + 3 Hours



You cannot post new topics in this forum
You cannot reply to topics in this forum
You cannot edit your posts in this forum
You cannot delete your posts in this forum
You cannot vote in polls in this forum
You cannot attach files in this forum
You cannot download files in this forum