Today is a free download without charge Download

Хищник: Трилогия / Predator: Trilogy (Джон МакТирнан, Стивен Хопкинс, Нимрод Антал) [1987,1990,2010, Фантастика, Боевик, Триллер, Приключения, BDRip]

Reply to topic
 
Author
Message

Region_13 ®

Gender:

Longevity: 5 years 11 months

Posts: 782

Location: Мальдивы

Торрент-статистика

Post 06-Jan-2016 12:39

[Quote]

Хищник / Predator
« Безмолвный. Невидимый. Непобедимый »
- Год выпуска: 1987
Производство: США | 20th Century Fox Film Corporation, Amercent Films, Davis Entertainment, Lawrence Gordon Productions, Silver Pictures, American Entertainment Partners L.P.
Жанр: Фантастика, Боевик, Триллер, Приключения
Режиссер: Джон МакТирнан
Продюсер: Джон Дэвис, Лоуренс Гордон, Джоэл Силвер
Актеры: Арнольд Шварценеггер, Карл Уэзерс, Эльпидия Каррильо, Билл Дьюк, Джесси Вентура, Сонни Лэндэм, Ричард Чавес, Р.Г. Армстронг, Шейн Блэк, Кевин Питер Холл, Стив Бойум
Описание фильма: Американский вертолет был сбит партизанами в Южной Америке. Оставшийся в живых экипаж находится в плену. Центральное разведывательное управление США бросает свои лучшие силы для освобождения американских граждан. Элитная группа спецназа во главе с Датчем была заброшена в южноамериканские джунгли.
Перевод: Профессиональный дублированный, профессиональный многоголосый, профессиональный двухголосый, авторский
Вид субтитров: Вшитые отключаемые
Язык субтитров: Русский, английский


Дата мировой премьеры: 12 июня 1987
Дата выхода DVD релиза: 15 августа 2006, «Двадцатый Век Фокс СНГ»
Дата выхода Blu-ray релиза: 22 июля 2010, «Двадцатый Век Фокс СНГ»
Продолжительность: 01:46:36
Возраст 16+: Зрителям, достигшим 16 лет
Рейтинг MPAA R: Лицам до 17 лет обязательно присутствие взрослого
Качество видео: BDRip [H.264]
Видео: MPEG-4 AVC/H.264, 3500 Kbps, 1024 x 554
Аудио 1: Русский AC3 5.1, 384 Kbps, 48.0 KHz (Полное дублирование) Blu-ray CEE
Аудио 2: Русский AC3 5.1, 384 Kbps, 48.0 KHz (Многоголосый закадровый) Киномания
Аудио 3: Русский AC3 5.1, 384 Kbps, 48.0 KHz (Многоголосый закадровый) Гемини
Аудио 4: Русский AC3 5.1, 384 Kbps, 48.0 KHz (Двухголосый закадровый) П. Гланц и И. Королёва
Аудио 5: Русский AC3 5.1, 384 Kbps, 48.0 KHz (Одноголосый закадровый) А. Гаврилов
Аудио 6: Русский AC3 5.1, 384 Kbps, 48.0 KHz (Одноголосый закадровый) Д. Пучков
Аудио 7: Русский AC3 5.1, 384 Kbps, 48.0 KHz (Одноголосый закадровый) Ю. Живов
Аудио 8: Английский AC3 5.1, 448 Kbps, 48.0 KHz (Оригинал)-

Blu-ray

MediaInfo

Общее
Полное имя : Хищник I.mkv
Формат : Matroska
Версия формата : Version 1
Размер файла : 4,94 Гбайт
Продолжительность : 1 ч. 46 м.
Общий поток : 6640 Кбит/сек
Дата кодирования : UTC 2014-12-31 18:12:52
Программа кодирования : mkvmerge v2.4.1 ('Use Me') built on Dec 5 2008 18:30:05
Библиотека кодирования : libebml v0.7.7 + libmatroska v0.8.1
Видео
Идентификатор : 1
Формат : AVC
Формат/Информация : Advanced Video Codec
Профиль формата : [url=mailto:High@L4.1]High@L4.1[/url]
Параметр CABAC формата : Да
Параметр ReFrames формата : 10 кадров
Идентификатор кодека : V_MPEG4/ISO/AVC
Продолжительность : 1 ч. 46 м.
Битрейт : 3500 Кбит/сек
Ширина : 1024 пикселя
Высота : 554 пикселя
Соотношение сторон : 1,85:1
Режим частоты кадров : Постоянный
Частота кадров : 23,976 кадра/сек
Цветовое пространство : YUV
Субдискретизация насыщенности : 4:2:0
Битовая глубина : 8 бит
Тип развёртки : Прогрессивная
Бит/(Пиксели*Кадры) : 0.257
Размер потока : 2,51 Гбайт (51%)
Заголовок : Хищник (1987)
Библиотека кодирования : x264 core 142 r2431 ac76440
Настройки программы : cabac=1 / ref=10 / deblock=1:-3:-3 / analyse=0x3:0x133 / me=umh / subme=10 / psy=1 / psy_rd=1.00:0.10 / mixed_ref=1 / me_range=48 / chroma_me=1 / trellis=2 / 8x8dct=1 / cqm=0 / deadzone=21,11 / fast_pskip=0 / chroma_qp_offset=-3 / threads=6 / lookahead_threads=1 / sliced_threads=0 / nr=0 / decimate=1 / interlaced=0 / bluray_compat=0 / constrained_intra=0 / bframes=5 / b_pyramid=2 / b_adapt=2 / b_bias=0 / direct=3 / weightb=1 / open_gop=0 / weightp=2 / keyint=240 / keyint_min=22 / scenecut=40 / intra_refresh=0 / rc_lookahead=40 / rc=2pass / mbtree=1 / bitrate=3500 / ratetol=1.0 / qcomp=0.60 / qpmin=10 / qpmax=51 / qpstep=4 / cplxblur=20.0 / qblur=0.5 / ip_ratio=1.40 / aq=1:1.00
Язык : English
Аудио #1
Идентификатор : 2
Формат : AC-3
Формат/Информация : Audio Coding 3
Расширение режима : CM (complete main)
Параметр Endianness формата : Big
Идентификатор кодека : A_AC3
Продолжительность : 1 ч. 46 м.
Вид битрейта : Постоянный
Битрейт : 384 Кбит/сек
Каналы : 6 каналов
Расположение каналов : Front: L C R, Side: L R, LFE
Частота : 48,0 КГц
Битовая глубина : 16 бит
Метод сжатия : С потерями
Размер потока : 293 Мбайт (6%)
Заголовок : AC3 (Дублированный) Blu-ray CEE
Язык : Russian
Аудио #2
Идентификатор : 3
Формат : AC-3
Формат/Информация : Audio Coding 3
Расширение режима : CM (complete main)
Параметр Endianness формата : Big
Идентификатор кодека : A_AC3
Продолжительность : 1 ч. 46 м.
Вид битрейта : Постоянный
Битрейт : 384 Кбит/сек
Каналы : 6 каналов
Расположение каналов : Front: L C R, Side: L R, LFE
Частота : 48,0 КГц
Битовая глубина : 16 бит
Метод сжатия : С потерями
Размер потока : 293 Мбайт (6%)
Заголовок : AC3 (Многоголосый) Киномания
Язык : Russian
Аудио #3
Идентификатор : 4
Формат : AC-3
Формат/Информация : Audio Coding 3
Расширение режима : CM (complete main)
Параметр Endianness формата : Big
Идентификатор кодека : A_AC3
Продолжительность : 1 ч. 46 м.
Вид битрейта : Постоянный
Битрейт : 384 Кбит/сек
Каналы : 6 каналов
Расположение каналов : Front: L C R, Side: L R, LFE
Частота : 48,0 КГц
Битовая глубина : 16 бит
Метод сжатия : С потерями
Размер потока : 293 Мбайт (6%)
Заголовок : AC3 (Многоголосый) Гемини
Язык : Russian
Аудио #4
Идентификатор : 5
Формат : AC-3
Формат/Информация : Audio Coding 3
Расширение режима : CM (complete main)
Параметр Endianness формата : Big
Идентификатор кодека : A_AC3
Продолжительность : 1 ч. 46 м.
Вид битрейта : Постоянный
Битрейт : 384 Кбит/сек
Каналы : 6 каналов
Расположение каналов : Front: L C R, Side: L R, LFE
Частота : 48,0 КГц
Битовая глубина : 16 бит
Метод сжатия : С потерями
Размер потока : 293 Мбайт (6%)
Заголовок : AC3 (Двухголосый) П. Гланц и И. Королёва
Язык : Russian
Аудио #5
Идентификатор : 6
Формат : AC-3
Формат/Информация : Audio Coding 3
Расширение режима : CM (complete main)
Параметр Endianness формата : Big
Идентификатор кодека : A_AC3
Продолжительность : 1 ч. 46 м.
Вид битрейта : Постоянный
Битрейт : 384 Кбит/сек
Каналы : 6 каналов
Расположение каналов : Front: L C R, Side: L R, LFE
Частота : 48,0 КГц
Битовая глубина : 16 бит
Метод сжатия : С потерями
Размер потока : 293 Мбайт (6%)
Заголовок : AC3 (Одноголосый) А. Гаврилов
Язык : Russian
Аудио #6
Идентификатор : 7
Формат : AC-3
Формат/Информация : Audio Coding 3
Расширение режима : CM (complete main)
Параметр Endianness формата : Big
Идентификатор кодека : A_AC3
Продолжительность : 1 ч. 46 м.
Вид битрейта : Постоянный
Битрейт : 384 Кбит/сек
Каналы : 6 каналов
Расположение каналов : Front: L C R, Side: L R, LFE
Частота : 48,0 КГц
Битовая глубина : 16 бит
Метод сжатия : С потерями
Размер потока : 293 Мбайт (6%)
Заголовок : AC3 (Одноголосый) Д. Пучков
Язык : Russian
Аудио #7
Идентификатор : 8
Формат : AC-3
Формат/Информация : Audio Coding 3
Расширение режима : CM (complete main)
Параметр Endianness формата : Big
Идентификатор кодека : A_AC3
Продолжительность : 1 ч. 46 м.
Вид битрейта : Постоянный
Битрейт : 384 Кбит/сек
Каналы : 6 каналов
Расположение каналов : Front: L C R, Side: L R, LFE
Частота : 48,0 КГц
Битовая глубина : 16 бит
Метод сжатия : С потерями
Размер потока : 293 Мбайт (6%)
Заголовок : AC3 (Одноголосый) Ю. Живов
Язык : Russian
Аудио #8
Идентификатор : 9
Формат : AC-3
Формат/Информация : Audio Coding 3
Расширение режима : CM (complete main)
Параметр Endianness формата : Big
Идентификатор кодека : A_AC3
Продолжительность : 1 ч. 46 м.
Вид битрейта : Постоянный
Битрейт : 448 Кбит/сек
Каналы : 6 каналов
Расположение каналов : Front: L C R, Side: L R, LFE
Частота : 48,0 КГц
Битовая глубина : 16 бит
Метод сжатия : С потерями
Размер потока : 342 Мбайт (7%)
Заголовок : AC3 (Оригинал)
Язык : English
Текст #1
Идентификатор : 10
Формат : UTF-8
Идентификатор кодека : S_TEXT/UTF8
Идентификатор кодека/Информация : UTF-8 Plain Text
Заголовок : Русские
Язык : Russian
Текст #2
Идентификатор : 11
Формат : UTF-8
Идентификатор кодека : S_TEXT/UTF8
Идентификатор кодека/Информация : UTF-8 Plain Text
Заголовок : Английские
Язык : English
-Скриншоты:
       
-Хищник 2 / Predator 2
« Приходит в город, чтобы утолить свою жажду убивать »
- Год выпуска: 1990
Производство: США | 20th Century Fox Film Corporation, Davis Entertainment, Lawrence Gordon Productions, Silver Pictures
Жанр: Фантастика, Боевик, Триллер
Режиссер: Стивен Хопкинс
Продюсер: Джон Дэвис, Лоуренс Гордон, Джоэл Силвер
Актеры: Дэнни Гловер, Гэри Бьюзи, Рубен Бладес, Мария Кончита Алонсо, Билл Пэкстон, Роберт Дави, Адам Болдуин, Кент МакКорд, Мортон Дауни, Кевин Питер Холл, Кэлвин Локхарт
Описание фильма: Харриган - крутой полицейский отдела по борьбе с наркотиками полиции Лос-Анджелеса. Ему поручено расследование серии убийств крупных криминальных авторитетов города. Все убийства совершены в извращенной форме и пахнут неприкрытым садизмом. После проведения экспертиз и расследований становится ясно, что убийство - дело рук существа, не имеющего ничего общего с человеком. Землю опять посетил межпланетный охотник, но ему придется столкнуться с существом еще более опасным, чем он сам - с человеком. Харриган выслеживает охотника, постепенно сам становясь охотником. Один на один, как настоящий воин, он ведет бескомпромиссную битву за сохранение чести и права человека не быть существом, на которое можно охотиться.
Перевод: Профессиональный дублированный, профессиональный многоголосый, профессиональный двухголосый, авторский
Вид субтитров: Вшитые отключаемые
Язык субтитров: Русский, английский


Дата мировой премьеры: 19 ноября 1990
Дата выхода DVD релиза: 30 января 2007, «Двадцатый Век Фокс СНГ»
Дата выхода Blu-ray релиза: 26 февраля 2009, «Двадцатый Век Фокс СНГ»
Продолжительность: 01:48:00
Возраст 18+: Зрителям, достигшим 18 лет
Рейтинг MPAA R: Лицам до 17 лет обязательно присутствие взрослого
Качество видео: BDRip [H.264]
Видео: MPEG-4 AVC/H.264, 3500 Kbps, 1024 x 554
Аудио 1: Русский AC3 5.1, 384 Kbps, 48.0 KHz (Полное дублирование) Blu-ray CEE
Аудио 2: Русский AC3 5.1, 384 Kbps, 48.0 KHz (Многоголосый закадровый) Киномания
Аудио 3: Русский AC3 5.1, 384 Kbps, 48.0 KHz (Многоголосый закадровый) Гемини
Аудио 4: Русский AC3 5.1, 384 Kbps, 48.0 KHz (Двухголосый закадровый) П. Гланц и И. Королёва
Аудио 5: Русский AC3 5.1, 384 Kbps, 48.0 KHz (Одноголосый закадровый) А. Гаврилов
Аудио 6: Русский AC3 5.1, 384 Kbps, 48.0 KHz (Одноголосый закадровый) К. Поздняков
Аудио 7: Русский AC3 5.1, 384 Kbps, 48.0 KHz (Одноголосый закадровый) В. Горчаков
Аудио 8: Английский AC3 5.1, 448 Kbps, 48.0 KHz (Оригинал)-

Blu-ray

MediaInfo

Общее
Полное имя : Хищник II.mkv
Формат : Matroska
Версия формата : Version 1
Размер файла : 5,01 Гбайт
Продолжительность : 1 ч. 48 м.
Общий поток : 6642 Кбит/сек
Дата кодирования : UTC 2015-01-01 07:05:30
Программа кодирования : mkvmerge v2.4.1 ('Use Me') built on Dec 5 2008 18:30:05
Библиотека кодирования : libebml v0.7.7 + libmatroska v0.8.1
Видео
Идентификатор : 1
Формат : AVC
Формат/Информация : Advanced Video Codec
Профиль формата : [url=mailto:High@L4.1]High@L4.1[/url]
Параметр CABAC формата : Да
Параметр ReFrames формата : 10 кадров
Идентификатор кодека : V_MPEG4/ISO/AVC
Продолжительность : 1 ч. 48 м.
Битрейт : 3500 Кбит/сек
Ширина : 1024 пикселя
Высота : 554 пикселя
Соотношение сторон : 1,85:1
Режим частоты кадров : Постоянный
Частота кадров : 23,976 кадра/сек
Цветовое пространство : YUV
Субдискретизация насыщенности : 4:2:0
Битовая глубина : 8 бит
Тип развёртки : Прогрессивная
Бит/(Пиксели*Кадры) : 0.257
Размер потока : 2,54 Гбайт (51%)
Заголовок : Хищник 2 (1990)
Библиотека кодирования : x264 core 142 r2431 ac76440
Настройки программы : cabac=1 / ref=10 / deblock=1:-3:-3 / analyse=0x3:0x133 / me=umh / subme=10 / psy=1 / psy_rd=1.00:0.10 / mixed_ref=1 / me_range=48 / chroma_me=1 / trellis=2 / 8x8dct=1 / cqm=0 / deadzone=21,11 / fast_pskip=0 / chroma_qp_offset=-3 / threads=6 / lookahead_threads=1 / sliced_threads=0 / nr=0 / decimate=1 / interlaced=0 / bluray_compat=0 / constrained_intra=0 / bframes=5 / b_pyramid=2 / b_adapt=2 / b_bias=0 / direct=3 / weightb=1 / open_gop=0 / weightp=2 / keyint=240 / keyint_min=22 / scenecut=40 / intra_refresh=0 / rc_lookahead=40 / rc=2pass / mbtree=1 / bitrate=3500 / ratetol=1.0 / qcomp=0.60 / qpmin=10 / qpmax=51 / qpstep=4 / cplxblur=20.0 / qblur=0.5 / ip_ratio=1.40 / aq=1:1.00
Язык : English
Аудио #1
Идентификатор : 2
Формат : AC-3
Формат/Информация : Audio Coding 3
Расширение режима : CM (complete main)
Параметр Endianness формата : Big
Идентификатор кодека : A_AC3
Продолжительность : 1 ч. 48 м.
Вид битрейта : Постоянный
Битрейт : 384 Кбит/сек
Каналы : 6 каналов
Расположение каналов : Front: L C R, Side: L R, LFE
Частота : 48,0 КГц
Битовая глубина : 16 бит
Метод сжатия : С потерями
Размер потока : 297 Мбайт (6%)
Заголовок : AC3 (Дублированный) Blu-ray CEE
Язык : Russian
Аудио #2
Идентификатор : 3
Формат : AC-3
Формат/Информация : Audio Coding 3
Расширение режима : CM (complete main)
Параметр Endianness формата : Big
Идентификатор кодека : A_AC3
Продолжительность : 1 ч. 48 м.
Вид битрейта : Постоянный
Битрейт : 384 Кбит/сек
Каналы : 6 каналов
Расположение каналов : Front: L C R, Side: L R, LFE
Частота : 48,0 КГц
Битовая глубина : 16 бит
Метод сжатия : С потерями
Размер потока : 297 Мбайт (6%)
Заголовок : AC3 (Многоголосый) Киномания
Язык : Russian
Аудио #3
Идентификатор : 4
Формат : AC-3
Формат/Информация : Audio Coding 3
Расширение режима : CM (complete main)
Параметр Endianness формата : Big
Идентификатор кодека : A_AC3
Продолжительность : 1 ч. 48 м.
Вид битрейта : Постоянный
Битрейт : 384 Кбит/сек
Каналы : 6 каналов
Расположение каналов : Front: L C R, Side: L R, LFE
Частота : 48,0 КГц
Битовая глубина : 16 бит
Метод сжатия : С потерями
Размер потока : 297 Мбайт (6%)
Заголовок : AC3 (Многоголосый) Гемини
Язык : Russian
Аудио #4
Идентификатор : 5
Формат : AC-3
Формат/Информация : Audio Coding 3
Расширение режима : CM (complete main)
Параметр Endianness формата : Big
Идентификатор кодека : A_AC3
Продолжительность : 1 ч. 48 м.
Вид битрейта : Постоянный
Битрейт : 384 Кбит/сек
Каналы : 6 каналов
Расположение каналов : Front: L C R, Side: L R, LFE
Частота : 48,0 КГц
Битовая глубина : 16 бит
Метод сжатия : С потерями
Размер потока : 297 Мбайт (6%)
Заголовок : AC3 (Двухголосый) П. Гланц и И. Королёва
Язык : Russian
Аудио #5
Идентификатор : 6
Формат : AC-3
Формат/Информация : Audio Coding 3
Расширение режима : CM (complete main)
Параметр Endianness формата : Big
Идентификатор кодека : A_AC3
Продолжительность : 1 ч. 48 м.
Вид битрейта : Постоянный
Битрейт : 384 Кбит/сек
Каналы : 6 каналов
Расположение каналов : Front: L C R, Side: L R, LFE
Частота : 48,0 КГц
Битовая глубина : 16 бит
Метод сжатия : С потерями
Размер потока : 297 Мбайт (6%)
Заголовок : AC3 (Одноголосый) А. Гаврилов
Язык : Russian
Аудио #6
Идентификатор : 7
Формат : AC-3
Формат/Информация : Audio Coding 3
Расширение режима : CM (complete main)
Параметр Endianness формата : Big
Идентификатор кодека : A_AC3
Продолжительность : 1 ч. 48 м.
Вид битрейта : Постоянный
Битрейт : 384 Кбит/сек
Каналы : 6 каналов
Расположение каналов : Front: L C R, Side: L R, LFE
Частота : 48,0 КГц
Битовая глубина : 16 бит
Метод сжатия : С потерями
Размер потока : 297 Мбайт (6%)
Заголовок : AC3 (Одноголосый) К. Поздняков
Язык : Russian
Аудио #7
Идентификатор : 8
Формат : AC-3
Формат/Информация : Audio Coding 3
Расширение режима : CM (complete main)
Параметр Endianness формата : Big
Идентификатор кодека : A_AC3
Продолжительность : 1 ч. 48 м.
Вид битрейта : Постоянный
Битрейт : 384 Кбит/сек
Каналы : 6 каналов
Расположение каналов : Front: L C R, Side: L R, LFE
Частота : 48,0 КГц
Битовая глубина : 16 бит
Метод сжатия : С потерями
Размер потока : 297 Мбайт (6%)
Заголовок : AC3 (Одноголосый) В. Горчаков
Язык : Russian
Аудио #8
Идентификатор : 9
Формат : AC-3
Формат/Информация : Audio Coding 3
Расширение режима : CM (complete main)
Параметр Endianness формата : Big
Идентификатор кодека : A_AC3
Продолжительность : 1 ч. 48 м.
Вид битрейта : Постоянный
Битрейт : 448 Кбит/сек
Каналы : 6 каналов
Расположение каналов : Front: L C R, Side: L R, LFE
Частота : 48,0 КГц
Битовая глубина : 16 бит
Метод сжатия : С потерями
Размер потока : 346 Мбайт (7%)
Заголовок : AC3 (Оригинал)
Язык : English
Текст #1
Идентификатор : 10
Формат : UTF-8
Идентификатор кодека : S_TEXT/UTF8
Идентификатор кодека/Информация : UTF-8 Plain Text
Заголовок : Русские
Язык : Russian
Текст #2
Идентификатор : 11
Формат : UTF-8
Идентификатор кодека : S_TEXT/UTF8
Идентификатор кодека/Информация : UTF-8 Plain Text
Заголовок : Английские
Язык : English
-Скриншоты:
       
-Хищники / Predators
« Они - самые опасные убийцы на планете. Но это не наша планета... »
- Год выпуска: 2010
Производство: США | 20th Century Fox Film Corporation, Troublemaker Studios, Davis Entertainment
Жанр: Фантастика, Боевик, Триллер, Приключения
Режиссер: Нимрод Антал
Продюсер: Джон Дэвис, Роберт Родригес, Элизабет Авеллан
Актеры: Эдриан Броуди, Тофер Грейс, Алиси Брага, Уолтон Гоггинс, Олег Тактаров, Лоренс Фишбёрн, Дэнни Трехо, Луис Одзава Чангчьен, Махершала Али, Кэри Джонс, Брайан Стил
Описание фильма: Наемник Ройс невольно вынужден возглавить группу профессионалов, выполняющих загадочную миссию на неизвестной планете. За исключением опального доктора все они - хладнокровные убийцы: наемники, гангстеры, осужденные и участники отрядов смерти - людские «хищники». Но когда их начинает систематически преследовать и истреблять невообразимое чудовище, становится очевидно, что теперь они в роли своих жертв.
Перевод: Профессиональный дублированный, авторский, любительский
Вид субтитров: Вшитые отключаемые
Язык субтитров: Русский, английский


Дата мировой премьеры: 7 июля 2010
Дата выхода DVD релиза: 30 сентября 2010, «Двадцатый Век Фокс СНГ»
Дата выхода Blu-ray релиза: 9 декабря 2010, «Двадцатый Век Фокс СНГ»
Продолжительность: 01:46:53
Возраст 16+: Зрителям, достигшим 16 лет
Рейтинг MPAA R: Лицам до 17 лет обязательно присутствие взрослого
Качество видео: BDRip [H.264]
Видео: MPEG-4 AVC/H.264, 3500 Kbps, 1024 x 434
Аудио 1: Русский AC3 5.1, 384 Kbps, 48.0 KHz (Полное дублирование) Blu-ray CEE
Аудио 2: Русский AC3 5.1, 384 Kbps, 48.0 KHz (Одноголосый закадровый) А. Гаврилов
Аудио 3: Русский AC3 5.1, 384 Kbps, 48.0 KHz (Одноголосый закадровый) Д. Строев
Аудио 4: Русский AC3 5.1, 384 Kbps, 48.0 KHz (Одноголосый закадровый) В. Замез
Аудио 5: Английский AC3 5.1, 448 Kbps, 48.0 KHz (Оригинал)-

Blu-ray

MediaInfo

Общее
Полное имя : Хищник III.mkv
Формат : Matroska
Версия формата : Version 1
Размер файла : 4,10 Гбайт
Продолжительность : 1 ч. 46 м.
Общий поток : 5488 Кбит/сек
Дата кодирования : UTC 2015-01-01 09:44:49
Программа кодирования : mkvmerge v2.4.1 ('Use Me') built on Dec 5 2008 18:30:05
Библиотека кодирования : libebml v0.7.7 + libmatroska v0.8.1
Видео
Идентификатор : 1
Формат : AVC
Формат/Информация : Advanced Video Codec
Профиль формата : [url=mailto:High@L4.1]High@L4.1[/url]
Параметр CABAC формата : Да
Параметр ReFrames формата : 10 кадров
Идентификатор кодека : V_MPEG4/ISO/AVC
Продолжительность : 1 ч. 46 м.
Битрейт : 3500 Кбит/сек
Ширина : 1024 пикселя
Высота : 434 пикселя
Соотношение сторон : 2,35:1
Режим частоты кадров : Постоянный
Частота кадров : 23,976 кадра/сек
Цветовое пространство : YUV
Субдискретизация насыщенности : 4:2:0
Битовая глубина : 8 бит
Тип развёртки : Прогрессивная
Бит/(Пиксели*Кадры) : 0.328
Размер потока : 2,53 Гбайт (62%)
Заголовок : Хищники (2010)
Библиотека кодирования : x264 core 142 r2431 ac76440
Настройки программы : cabac=1 / ref=10 / deblock=1:-3:-3 / analyse=0x3:0x133 / me=umh / subme=10 / psy=1 / psy_rd=1.00:0.10 / mixed_ref=1 / me_range=48 / chroma_me=1 / trellis=2 / 8x8dct=1 / cqm=0 / deadzone=21,11 / fast_pskip=0 / chroma_qp_offset=-3 / threads=6 / lookahead_threads=1 / sliced_threads=0 / nr=0 / decimate=1 / interlaced=0 / bluray_compat=0 / constrained_intra=0 / bframes=5 / b_pyramid=2 / b_adapt=2 / b_bias=0 / direct=3 / weightb=1 / open_gop=0 / weightp=2 / keyint=240 / keyint_min=22 / scenecut=40 / intra_refresh=0 / rc_lookahead=40 / rc=2pass / mbtree=1 / bitrate=3500 / ratetol=1.0 / qcomp=0.60 / qpmin=10 / qpmax=51 / qpstep=4 / cplxblur=20.0 / qblur=0.5 / ip_ratio=1.40 / aq=1:1.00
Язык : English
Аудио #1
Идентификатор : 2
Формат : AC-3
Формат/Информация : Audio Coding 3
Расширение режима : CM (complete main)
Параметр Endianness формата : Big
Идентификатор кодека : A_AC3
Продолжительность : 1 ч. 46 м.
Вид битрейта : Постоянный
Битрейт : 384 Кбит/сек
Каналы : 6 каналов
Расположение каналов : Front: L C R, Side: L R, LFE
Частота : 48,0 КГц
Битовая глубина : 16 бит
Метод сжатия : С потерями
Размер потока : 294 Мбайт (7%)
Заголовок : AC3 (Дублированный) Blu-ray CEE
Язык : Russian
Аудио #2
Идентификатор : 3
Формат : AC-3
Формат/Информация : Audio Coding 3
Расширение режима : CM (complete main)
Параметр Endianness формата : Big
Идентификатор кодека : A_AC3
Продолжительность : 1 ч. 46 м.
Вид битрейта : Постоянный
Битрейт : 384 Кбит/сек
Каналы : 6 каналов
Расположение каналов : Front: L C R, Side: L R, LFE
Частота : 48,0 КГц
Битовая глубина : 16 бит
Метод сжатия : С потерями
Размер потока : 294 Мбайт (7%)
Заголовок : AC3 (Одноголосый) А. Гаврилов
Язык : Russian
Аудио #3
Идентификатор : 4
Формат : AC-3
Формат/Информация : Audio Coding 3
Расширение режима : CM (complete main)
Параметр Endianness формата : Big
Идентификатор кодека : A_AC3
Продолжительность : 1 ч. 46 м.
Вид битрейта : Постоянный
Битрейт : 384 Кбит/сек
Каналы : 6 каналов
Расположение каналов : Front: L C R, Side: L R, LFE
Частота : 48,0 КГц
Битовая глубина : 16 бит
Метод сжатия : С потерями
Размер потока : 294 Мбайт (7%)
Заголовок : AC3 (Одноголосый) Д. Строев
Язык : Russian
Аудио #4
Идентификатор : 5
Формат : AC-3
Формат/Информация : Audio Coding 3
Расширение режима : CM (complete main)
Параметр Endianness формата : Big
Идентификатор кодека : A_AC3
Продолжительность : 1 ч. 46 м.
Вид битрейта : Постоянный
Битрейт : 384 Кбит/сек
Каналы : 6 каналов
Расположение каналов : Front: L C R, Side: L R, LFE
Частота : 48,0 КГц
Битовая глубина : 16 бит
Метод сжатия : С потерями
Размер потока : 294 Мбайт (7%)
Заголовок : AC3 (Одноголосый) В. Замез
Язык : Russian
Аудио #5
Идентификатор : 6
Формат : AC-3
Формат/Информация : Audio Coding 3
Расширение режима : CM (complete main)
Параметр Endianness формата : Big
Идентификатор кодека : A_AC3
Продолжительность : 1 ч. 46 м.
Вид битрейта : Постоянный
Битрейт : 448 Кбит/сек
Каналы : 6 каналов
Расположение каналов : Front: L C R, Side: L R, LFE
Частота : 48,0 КГц
Битовая глубина : 16 бит
Метод сжатия : С потерями
Размер потока : 342 Мбайт (8%)
Заголовок : AC3 (Оригинал)
Язык : English
Текст #1
Идентификатор : 7
Формат : UTF-8
Идентификатор кодека : S_TEXT/UTF8
Идентификатор кодека/Информация : UTF-8 Plain Text
Заголовок : Русские
Язык : Russian
Текст #2
Идентификатор : 8
Формат : UTF-8
Идентификатор кодека : S_TEXT/UTF8
Идентификатор кодека/Информация : UTF-8 Plain Text
Заголовок : Английские
Язык : English
-Скриншоты:
       

_________________
Other forum [Profile] [PM]
Display posts from previous:    
Reply to topic

The time now is: Today 13:50

All times are GMT + 3 Hours



You cannot post new topics in this forum
You cannot reply to topics in this forum
You cannot edit your posts in this forum
You cannot delete your posts in this forum
You cannot vote in polls in this forum
You cannot attach files in this forum
You cannot download files in this forum